Гайвер / Guyver (Скримин Мэд Джордж / Screaming Mad George, Стив Ванг / Steve Wang) [1991, США, Япония, фантастика, боевик, комедия, комикс, BDRip 720p] AVO (Гаврилов) + AVO (Горчаков) + Sub (Rus, Eng) + Original Eng

Ответить на тему
 
Автор Сообщение

user ®

Стаж: 7 лет 7 месяцев

Сообщений: 20008

Пост Пост: #1 от 20-Май-2015 16:36

[Цитировать]

Гайвер / Guyver
Страна: США, Япония
Студия: Imperial Entertainment
Жанр: Фантастика, боевик, комедия, комикс
Год выпуска: 1991
Продолжительность: 01:30:28
Перевод 1: Авторский (одноголосый закадровый) Гаврилов
Перевод 2: Авторский (одноголосый закадровый) Горчаков
Перевод 3: Авторский (одноголосый закадровый) Гаврилов (ранний VHS)
Перевод 4: Авторский (одноголосый закадровый) неизвестный (VHS)
Cубтитры: русские, английские
Оригинальная аудиодорожка: английский
Режиссер: Скримин Мэд Джордж / Screaming Mad George, Стив Ванг / Steve Wang
В ролях: Марк Хэмилл, Майкл Берриман, Грег Пайк, Джимми Уолкер, Дэвид Гэйл, Джеффри Комбс, Спайс Уильямс, Джек Армстронг, Вивиан Ву, Дебора Горман, Линни Куигли
Описание: В самом начале времен пришельцы прилетели на Землю, чтобы создать самое совершенное органическое оружие. Они создали человечество. Введя специальный ген в человека, они создали зоанидов - людей, которые могли по своему желанию превращаться в монстров-суперсолдат. Много эпох спустя, вождь зоаноидов по имени Зоалорд пробудился ото сна и создал корпорацию "Хронос" для того, чтобы усовершенствовать технологию зоаноидов и покорить весь мир. Был также найдет особый блок - биоусиленные доспехи пришельцев. Если его надевали пришельцы, он служил как обычный щит. Если доспехи надевал человек, его естественная сила увеличивалась в сотни раз - он становился Гайвером..
Сэмпл: http://multi-up.com/1049290
Тип релиза: BDRip 720p
Контейнер: MKV
Видео: MPEG4 Video, (H264), 1280x720, 25.00fps, ~ 5809 Kbps
Аудио 1: 48 kHz, AC3 Dolby Digital, 6 ch, ~384 kbps avg Гаврилов
Аудио 2: 48 kHz, AC3 Dolby Digital, 2 ch, ~384 kbps avg Горчаков
Аудио 3: 48 kHz, AC3 Dolby Digital, 2 ch, ~192 kbps avg Гаврилов (ранний VHS)
Аудио 4: 48 kHz, AC3 Dolby Digital, 2 ch, ~192 kbps avg неизвестный (VHS)
Аудио 5: 48 kHz, AC3 Dolby Digital, 6 ch, ~448 kbps avg оригинал
Субтитры: softsub (SRT)
MediaInfo
General
Unique ID : 231050411674915103973281793435063262005 (0xADD2B0CE7D2D7E218AF6D13CA96F9B35)
Complete name : C:\Users\Роман\Desktop\Guyver (1991) [720p].mkv
Format : Matroska
Format version : Version 4 / Version 2
File size : 4.89 GiB
Duration : 1h 32mn
Overall bit rate : 7 564 Kbps
Encoded date : UTC 2015-05-19 12:47:00
Writing application : mkvmerge v7.8.0 ('River Man') 64bit built on Mar 27 2015 16:31:37
Writing library : libebml v1.3.1 + libmatroska v1.4.2
_STATISTICS_WRITING_APP : mkvmerge v7.8.0 ('River Man') 64bit built on Mar 27 2015 16:31:37
_STATISTICS_WRITING_DATE_UTC : 2015-05-19 12:47:00
_STATISTICS_TAGS : BPS DURATION NUMBER_OF_FRAMES NUMBER_OF_BYTES
DURATION : 01:28:10.749000000
NUMBER_OF_FRAMES : 888
NUMBER_OF_BYTES : 23311
Video
ID : 1
Format : AVC
Format/Info : Advanced Video Codec
Format profile : High@L4.1
Format settings, CABAC : Yes
Format settings, ReFrames : 9 frames
Codec ID : V_MPEG4/ISO/AVC
Duration : 1h 32mn
Bit rate : 5 813 Kbps
Width : 1 280 pixels
Height : 720 pixels
Display aspect ratio : 16:9
Frame rate mode : Constant
Frame rate : 23.976 fps
Color space : YUV
Chroma subsampling : 4:2:0
Bit depth : 8 bits
Scan type : Progressive
Bits/(Pixel*Frame) : 0.263
Stream size : 3.75 GiB (77%)
Writing library : x264 core 146 r0+2586 e393126 t_mod_Custom [8-bit@all X86_64]
Encoding settings : cabac=1 / ref=9 / deblock=1:-3:-3 / analyse=0x3:0x133 / me=umh / subme=10 / psy=1 / fade_compensate=0.00 / psy_rd=1.00:0.05 / mixed_ref=1 / me_range=24 / chroma_me=1 / trellis=2 / 8x8dct=1 / cqm=0 / deadzone=21,11 / fast_pskip=0 / chroma_qp_offset=-3 / threads=6 / lookahead_threads=1 / sliced_threads=0 / nr=0 / decimate=1 / interlaced=0 / bluray_compat=0 / constrained_intra=0 / fgo=0 / bframes=12 / b_pyramid=2 / b_adapt=2 / b_bias=0 / direct=3 / weightb=1 / open_gop=0 / weightp=2 / keyint=250 / keyint_min=23 / scenecut=40 / intra_refresh=0 / rc_lookahead=60 / rc=crf / mbtree=0 / crf=17.0000 / qcomp=0.70 / qpmin=0:0:0 / qpmax=69:69:69 / qpstep=4 / vbv_maxrate=62500 / vbv_bufsize=78125 / crf_max=0.0 / nal_hrd=none / filler=0 / ip_ratio=1.40 / pb_ratio=1.30 / aq=1:0.65 / aq-sensitivity=10.00 / aq-factor=1.00:1.00:1.00 / aq2=0 / aq3=0
Language : English
Default : No
Forced : No
Color primaries : BT.709
Transfer characteristics : BT.709
Matrix coefficients : BT.709
Color range : Limited
_STATISTICS_WRITING_APP : mkvmerge v7.8.0 ('River Man') 64bit built on Mar 27 2015 16:31:37
_STATISTICS_WRITING_DATE_UTC : 2015-05-19 12:47:00
_STATISTICS_TAGS : BPS DURATION NUMBER_OF_FRAMES NUMBER_OF_BYTES
DURATION : 01:32:26.792000000
NUMBER_OF_FRAMES : 132990
NUMBER_OF_BYTES : 4133696001
Audio #1
ID : 2
Format : AC-3
Format/Info : Audio Coding 3
Mode extension : CM (complete main)
Format settings, Endianness : Big
Codec ID : A_AC3
Duration : 1h 32mn
Bit rate mode : Constant
Bit rate : 384 Kbps
Channel(s) : 6 channels
Channel positions : Front: L C R, Side: L R, LFE
Sampling rate : 48.0 KHz
Bit depth : 16 bits
Compression mode : Lossy
Stream size : 254 MiB (5%)
Title : Гаврилов
Language : Russian
Default : No
Forced : No
Audio #2
ID : 3
Format : AC-3
Format/Info : Audio Coding 3
Mode extension : CM (complete main)
Format settings, Endianness : Big
Codec ID : A_AC3
Duration : 1h 32mn
Bit rate mode : Constant
Bit rate : 384 Kbps
Channel(s) : 2 channels
Channel positions : Front: L R
Sampling rate : 48.0 KHz
Bit depth : 16 bits
Compression mode : Lossy
Stream size : 254 MiB (5%)
Title : Горчаков
Language : Russian
Default : No
Forced : No
Audio #3
ID : 4
Format : AC-3
Format/Info : Audio Coding 3
Mode extension : CM (complete main)
Format settings, Endianness : Big
Codec ID : A_AC3
Duration : 1h 32mn
Bit rate mode : Constant
Bit rate : 192 Kbps
Channel(s) : 2 channels
Channel positions : Front: L R
Sampling rate : 48.0 KHz
Bit depth : 16 bits
Compression mode : Lossy
Stream size : 127 MiB (3%)
Title : Гаврилов (ранний VHS)
Language : Russian
Default : No
Forced : No
Audio #4
ID : 5
Format : AC-3
Format/Info : Audio Coding 3
Mode extension : CM (complete main)
Format settings, Endianness : Big
Codec ID : A_AC3
Duration : 1h 32mn
Bit rate mode : Constant
Bit rate : 192 Kbps
Channel(s) : 2 channels
Channel positions : Front: L R
Sampling rate : 48.0 KHz
Bit depth : 16 bits
Compression mode : Lossy
Stream size : 127 MiB (3%)
Title : неизвестный (VHS)
Language : Russian
Default : No
Forced : No
Audio #5
ID : 6
Format : AC-3
Format/Info : Audio Coding 3
Mode extension : CM (complete main)
Format settings, Endianness : Big
Codec ID : A_AC3
Duration : 1h 32mn
Bit rate mode : Constant
Bit rate : 448 Kbps
Channel(s) : 6 channels
Channel positions : Front: L C R, Side: L R, LFE
Sampling rate : 48.0 KHz
Bit depth : 16 bits
Compression mode : Lossy
Stream size : 296 MiB (6%)
Title : оригинал
Language : English
Default : No
Forced : No
Text #1
ID : 7
Format : UTF-8
Codec ID : S_TEXT/UTF8
Codec ID/Info : UTF-8 Plain Text
Title : full
Language : Russian
Default : No
Forced : No
Text #2
ID : 8
Format : UTF-8
Codec ID : S_TEXT/UTF8
Codec ID/Info : UTF-8 Plain Text
Title : forced (Горчаков)
Language : Russian
Default : No
Forced : No
Text #3
ID : 9
Format : UTF-8
Codec ID : S_TEXT/UTF8
Codec ID/Info : UTF-8 Plain Text
Title : forced (неизвестный)
Language : Russian
Default : No
Forced : No
Text #4
ID : 10
Format : UTF-8
Codec ID : S_TEXT/UTF8
Codec ID/Info : UTF-8 Plain Text
Title : original
Language : English
Default : No
Forced : No
Menu
00:00:00.000 : en:00:00:00.000
00:00:00.375 : en:00:00:00.375
00:12:43.429 : en:00:12:43.429
00:25:54.845 : en:00:25:54.845
00:42:10.862 : en:00:42:10.862
01:00:27.290 : en:01:00:27.290
01:12:12.828 : en:01:12:12.828
01:22:17.224 : en:01:22:17.224
01:29:49.801 : en:01:29:49.801
Скриншоты
Скачать

Скачать торрент!

Как скачивать? · Что такое торрент? · Рейтинг и ограничения

Сайт не распространяет и не хранит электронные версии произведений, а лишь предоставляет доступ к создаваемому пользователями каталогу ссылок на торрент-файлы, которые содержат только списки хеш-сумм

[Профиль] [ЛС]
Показать сообщения:    
Ответить на тему

Текущее время: Сегодня 02:16

Часовой пояс: GMT + 4



Вы не можете начинать темы
Вы не можете отвечать на сообщения
Вы не можете редактировать свои сообщения
Вы не можете удалять свои сообщения
Вы не можете голосовать в опросах
Вы не можете прикреплять файлы к сообщениям
Вы не можете скачивать файлы