Кибер / Blackhat (Майкл Манн / Michael Mann) [2015, США, Боевик, триллер, драма, криминал, детектив, BDRip-AVC] Dub + Original (Eng) + Subs (Rus., Ukr., Eng.)

Ответить на тему
 
Автор Сообщение

user ®

Стаж: 7 лет 7 месяцев

Сообщений: 20008

Пост Пост: #1 от 19-Май-2015 09:39

[Цитировать]

-Кибер / Blackhat- Год выпуска: 2015
Страна: США
Жанр: Боевик, триллер, драма, криминал, детектив
Продолжительность: 02:12:56
Перевод: Профессиональный (полное дублирование) |Лицензия|
Русские субтитры: есть-Режиссер: Майкл Манн / Michael Mann-В ролях: Крис Хемсворт, Ван Лихом, Тан Вэй, Виола Дэвис, Холт МакКэллани, Энди Он, Ричи Костер, Кристиан Борл, Джон Ортис, Йорик ван Вагенинген, Тайсон Чак, Брэндон Молале, Дэнни Бурстейн, Арчи Као, Абхи Синха, Джейсон Батлер Харнер, Мэнни Монтана, Спенсер Гаррет, Ши Лян, Кан Мок-Описание: Николас - выдающийся программист и по совместительству киберпреступник. Его ловят и сажают в тюрьму на 15 лет. За один день неизвестный хакер взламывает системы защиты крупных банков, это грозит огромным коллапсом. Правительство не знает, как им остановить преступника, ведь он очень легко взламывает самые надёжные компьютерные системы, которые до этого считались неприступными. Тогда принимается решение, что против хакера должен бороться такой же как он компьютерный гений, и правительство вспоминает о Николасе. Ему предлагают выгодную сделку: он помогает остановить злоумышленника, а взамен с него снимаются все обвинения. Недолго думая, герой принимает заманчивое предложение, даже не подозревая, какая смертельно опасная игра ждёт его впереди. Насколько далеко зайдёт злодей в своей опасной игре, и сможет ли главный герой помешать его чудовищным планам?-Кинопоиск: 5.4/10 || IMDB: 5.4/10-Релиз от: -Автор рипа: potroks-Качество: BDRip-AVC
Формат: MKV
Видео кодек: H.264
Аудио кодек: AC3
Видео: 1032x430 (2,40:1), 23,976 fps, 1581 kbps, 0.149 bit/pixel
Аудио#1: 48 kHz, AC3 Dolby Digital, 3/2 (L,C,R,l,r) + LFE ch, 384.00 kbps | RUS
Аудио#2: 48 kHz, AC3 Dolby Digital, 3/2 (L,C,R,l,r) + LFE ch, 384.00 kbps | ENG
Субтитры: Русские (полные + форс.), украинские, английские (Full + SDH + SDH-Colored)
- -MediaInfo
Kiber.2015.DUAL.BDRip-AVC.-HELLYWOOD.mkv
Format : Matroska
Format version : Version 4 / Version 2
File size : 2.18 GiB
Duration : 2h 12mn
Overall bit rate : 2 350 Kbps
Movie name : Blackhat (2015) - HELLYWOOD
Encoded date : UTC 2015-05-15 14:13:21
Writing application : mkvmerge v5.9.0 ('On The Loose') built on Dec 15 2012 16:39:58
Writing library : libebml v1.3.0 + libmatroska v1.4.0
Video
ID : 1
Format : AVC
Format/Info : Advanced Video Codec
Format profile : High@L4.1
Format settings, CABAC : Yes
Format settings, ReFrames : 10 frames
Codec ID : V_MPEG4/ISO/AVC
Duration : 2h 12mn
Bit rate : 1 581 Kbps
Width : 1 032 pixels
Height : 430 pixels
Display aspect ratio : 2.40:1
Frame rate mode : Constant
Frame rate : 23.976 fps
Color space : YUV
Chroma subsampling : 4:2:0
Bit depth : 8 bits
Scan type : Progressive
Bits/(Pixel*Frame) : 0.149
Stream size : 1.43 GiB (65%)
Title : potroks
Writing library : x264 core 146 r2538 121396c
Encoding settings : cabac=1 / ref=10 / deblock=1:-3:-3 / analyse=0x3:0x113 / me=umh / subme=11 / psy=1 / psy_rd=0.98:0.00 / mixed_ref=1 / me_range=48 / chroma_me=1 / trellis=2 / 8x8dct=1 / cqm=0 / deadzone=21,11 / fast_pskip=0 / chroma_qp_offset=-2 / threads=12 / lookahead_threads=2 / sliced_threads=0 / nr=0 / decimate=0 / interlaced=0 / bluray_compat=0 / constrained_intra=0 / bframes=11 / b_pyramid=2 / b_adapt=2 / b_bias=0 / direct=3 / weightb=1 / open_gop=0 / weightp=2 / keyint=250 / keyint_min=23 / scenecut=40 / intra_refresh=0 / rc_lookahead=60 / rc=2pass / mbtree=0 / bitrate=1581 / ratetol=1.0 / qcomp=0.72 / qpmin=0 / qpmax=69 / qpstep=4 / cplxblur=20.0 / qblur=0.5 / vbv_maxrate=14000 / vbv_bufsize=14000 / nal_hrd=none / filler=0 / ip_ratio=1.35 / pb_ratio=1.25 / aq=1:0.80
Language : English
Default : Yes
Forced : No
Audio #1
ID : 2
Format : AC-3
Format/Info : Audio Coding 3
Mode extension : CM (complete main)
Format settings, Endianness : Big
Codec ID : A_AC3
Duration : 2h 12mn
Bit rate mode : Constant
Bit rate : 384 Kbps
Channel(s) : 6 channels
Channel positions : Front: L C R, Side: L R, LFE
Sampling rate : 48.0 KHz
Bit depth : 16 bits
Compression mode : Lossy
Stream size : 365 MiB (16%)
Title : Dub | DD 5.1 @ 384 kbps - Blu-Ray CEE
Language : Russian
Default : Yes
Forced : No
Audio #2
ID : 3
Format : AC-3
Format/Info : Audio Coding 3
Mode extension : CM (complete main)
Format settings, Endianness : Big
Codec ID : A_AC3
Duration : 2h 12mn
Bit rate mode : Constant
Bit rate : 384 Kbps
Channel(s) : 6 channels
Channel positions : Front: L C R, Side: L R, LFE
Sampling rate : 48.0 KHz
Bit depth : 16 bits
Compression mode : Lossy
Stream size : 365 MiB (16%)
Title : Original | DD 5.1 @ 384 kbps
Language : English
Default : No
Forced : No
Text #1
ID : 4
Format : UTF-8
Codec ID : S_TEXT/UTF8
Codec ID/Info : UTF-8 Plain Text
Title : форс.
Language : Russian
Default : Yes
Forced : No
Text #2
ID : 5
Format : UTF-8
Codec ID : S_TEXT/UTF8
Codec ID/Info : UTF-8 Plain Text
Title : Blu-Ray
Language : Russian
Default : No
Forced : No
Text #3
ID : 6
Format : UTF-8
Codec ID : S_TEXT/UTF8
Codec ID/Info : UTF-8 Plain Text
Title : Blu-Ray
Language : Ukrainian
Default : No
Forced : No
Text #4
ID : 7
Format : UTF-8
Codec ID : S_TEXT/UTF8
Codec ID/Info : UTF-8 Plain Text
Title : Full
Language : English
Default : No
Forced : No
Text #5
ID : 8
Format : UTF-8
Codec ID : S_TEXT/UTF8
Codec ID/Info : UTF-8 Plain Text
Title : SDH
Language : English
Default : No
Forced : No
Text #6
ID : 9
Format : UTF-8
Codec ID : S_TEXT/UTF8
Codec ID/Info : UTF-8 Plain Text
Title : SDH-Colored
Language : English
Default : No
Forced : No
Menu
00:00:00.000 : en:00:00:00.000
00:06:14.207 : en:00:06:14.207
00:13:43.281 : en:00:13:43.281
00:20:22.680 : en:00:20:22.680
00:28:04.933 : en:00:28:04.933
00:33:31.509 : en:00:33:31.509
00:38:03.364 : en:00:38:03.364
00:45:32.271 : en:00:45:32.271
00:55:34.998 : en:00:55:34.998
01:00:53.608 : en:01:00:53.608
01:08:17.218 : en:01:08:17.218
01:13:56.641 : en:01:13:56.641
01:21:20.626 : en:01:21:20.626
01:26:56.878 : en:01:26:56.878
01:34:12.188 : en:01:34:12.188
01:39:09.485 : en:01:39:09.485
01:44:23.007 : en:01:44:23.007
01:47:52.049 : en:01:47:52.049
01:55:05.857 : en:01:55:05.857
02:04:52.110 : en:02:04:52.110

-
Скриншоты -
Скачать

Скачать торрент!

Как скачивать? · Что такое торрент? · Рейтинг и ограничения

Сайт не распространяет и не хранит электронные версии произведений, а лишь предоставляет доступ к создаваемому пользователями каталогу ссылок на торрент-файлы, которые содержат только списки хеш-сумм

[Профиль] [ЛС]
Показать сообщения:    
Ответить на тему

Текущее время: Сегодня 07:51

Часовой пояс: GMT + 4



Вы не можете начинать темы
Вы не можете отвечать на сообщения
Вы не можете редактировать свои сообщения
Вы не можете удалять свои сообщения
Вы не можете голосовать в опросах
Вы не можете прикреплять файлы к сообщениям
Вы не можете скачивать файлы