Институт Аттикус / The Atticus Institute (Крис Спарлинг / Chris Sparling) [2015, США, Ужасы, HDRip] [HDRip] Dub

Ответить на тему
 
Автор Сообщение

user ®

Стаж: 7 лет 7 месяцев

Сообщений: 20008

Пост Пост: #1 от 19-Май-2015 09:39

[Цитировать]

Институт Аттикус / The Atticus Institute / HDRip
Страна: США
Жанр: Ужасы
Год выпуска: 2015
Продолжительность: 01:22:48
Перевод: Профессиональный (дублированный)
Cубтитры: нет
Оригинальная аудиодорожка: нет
Режиссер: Крис Спарлинг / Chris Sparling
В ролях: Джулиан Акоста, Энн Бетанкур, Карлос Е. Кампос, Джейк Карпентер, Хит Сентаццо, Брайан Ченоуэт, Ханна Коули, Аарон Крэвен, Динарте де Фрейтас, Лэндалл Гулсби
Описание: Ненри Уэст основал институт Аттикус, который занимается исследованием людей с паранормальными способностями — телекинез, телепатия и т. п. За всю его деятельность Уэст видел много разных случаев, но с появлением женщины Джудит Уинстед, всё что он видел ранее стало малозначительным. Сотрудники института были поражены ее сверх способностями, что привлекло внимание военных США, и дальнейшие исследования проводились под контролем армии. Все дальнейшие исследования Джудит дали понять докторам, что ее способности это происки дьявола и потусторонних сил, которые находились внутри женщины. Военные решают использовать Джудит в качестве оружия. Но вскоре они понимают, что не со всякой властью они могут справиться.
Сэмпл: http://sendfile.su/1119404
Качество видео: HDRip
Формат видео: AVI
Видео: 720x384 (1.85:1), 23.976 fps, XviD MPEG4 ~ 1970 kbps avg, 0.297 bit/pixel
Аудио: 48.00 kHz, AC3 Dolby Digital, 3/2 (L,C,R,l,r) + LFE ch, ~384.00 kbps avg
MediaInfo
General
Complete name : D:\video x2\Institуt.Attikуs.2015.D.HDRip.1400Mb.avi
Format : AVI
Format/Info : Audio Video Interleave
File size : 1.37 GiB
Duration : 1h 22mn
Overall bit rate : 2 363 Kbps
Writing application : VirtualDubMod 1.5.10.3 | www.virtualdub-fr.org || (build 2550/release)
Writing library : VirtualDubMod build 2550/release
Video
ID : 0
Format : MPEG-4 Visual
Format profile : Advanced Simple@L5
Format settings, BVOP : 2
Format settings, QPel : No
Format settings, GMC : No warppoints
Format settings, Matrix : Default (MPEG)
Codec ID : XVID
Codec ID/Hint : XviD
Duration : 1h 22mn
Bit rate : 1 970 Kbps
Width : 720 pixels
Height : 384 pixels
Display aspect ratio : 1.85:1
Frame rate : 23.976 fps
Color space : YUV
Chroma subsampling : 4:2:0
Bit depth : 8 bits
Scan type : Progressive
Compression mode : Lossy
Bits/(Pixel*Frame) : 0.297
Stream size : 1.14 GiB (83%)
Writing library : XviD 1.2.1 (UTC 2008-12-04)
Audio
ID : 1
Format : AC-3
Format/Info : Audio Coding 3
Mode extension : CM (complete main)
Format settings, Endianness : Big
Codec ID : 2000
Duration : 1h 22mn
Bit rate mode : Constant
Bit rate : 384 Kbps
Channel(s) : 6 channels
Channel positions : Front: L C R, Side: L R, LFE
Sampling rate : 48.0 KHz
Bit depth : 16 bits
Compression mode : Lossy
Stream size : 227 MiB (16%)
Alignment : Split accross interleaves
Interleave, duration : 42 ms (1.00 video frame)
Interleave, preload duration : 500 ms
Скриншот c названием фильма Скриншоты
Скачать

Скачать торрент!

Как скачивать? · Что такое торрент? · Рейтинг и ограничения

Сайт не распространяет и не хранит электронные версии произведений, а лишь предоставляет доступ к создаваемому пользователями каталогу ссылок на торрент-файлы, которые содержат только списки хеш-сумм

[Профиль] [ЛС]
Показать сообщения:    
Ответить на тему

Текущее время: Сегодня 12:14

Часовой пояс: GMT + 4



Вы не можете начинать темы
Вы не можете отвечать на сообщения
Вы не можете редактировать свои сообщения
Вы не можете удалять свои сообщения
Вы не можете голосовать в опросах
Вы не можете прикреплять файлы к сообщениям
Вы не можете скачивать файлы