Зарафа / Zarafa (Реми Безансон / Rémi Bezançon, Жан-Кристоф Ли / Jean-Christophe Lie) [2012, мультфильм, семейный, HDRip] DUB

Ответить на тему
 
Автор Сообщение

user ®

Стаж: 13 лет

Сообщений: 15041

Пост Пост: #1 от 19-Май-2015 00:24

[Цитировать]

ЗарафаZarafa- Страна: Франция, Бельгия
Жанр: Мультфильм, семейный
Продолжительность: 01:18:33
Год выпуска: 2012
Перевод: Профессиональный (дублированный) Студия Пифагор - по заказу компании Вест
Русские субтитры: нет-Режиссёр: Реми Безансон/Rémi Bezançon, Жан-Кристоф Лие/Jean-Christophe Lie
композитор: Лорен Перез-Роли озвучивали: Лева Акселерот, Василий Дохменко, Маша Емельянова, Алексей Колбин, Владимир Еремин, Илья Исаев, Владимир Ивашов,
Александр Головчанский, Никита Прозоровский, Инна Королева, Олег Хворостенко, Стася Кутикова, Велес Полиновский, Алина Кукушкина, Маруся Славина, Даня Бледный, Анастасия Жарикова и другие
.
-Описание: Судан, 19-й век. Десятилетний мальчик Маки cбегает от захватившего его французского работорговца и находит друга - молодую жирафу, оставшуюся сиротой и, к сожалению, предназначенную стать подарком королю Франции Карлу X, в обмен на его поддержку в войне против турков, осадивших Александрию...
Мультфильм, снятый в формате 2D и вышедший на экраны в 2012 году, является вольной интерпретацией реальной истории: прибытия во Францию первого жирафа в 1826 году, подаренного пашой Египта Мухаммедом Али - королю Шарлю X, чтобы обогатить коллекцию животных королевского Ботанического Сада, что вызвало в стране настоящую "жирафоманию".
Авторы ленты - Реми Безансон, известный по фильму "Первый день остатка твоей жизни", и Жан-Кристоф Ли, создатель мультфильмов "Трио из Бельвиля" и "Кирику и дикие звери" - рассказывают нам замечательную умную сказку, наполненную захватывающими приключениями и сильными эмоциями на фоне картин жестокой колониальной эпохи.
Простую и элегантную графику обрамляет чудесная музыка Лорена Переза, навеянная темой из фильма "Лоуренс Аравийский", что делает этот фильм одинаково интересным и поучительным для всей семьи.Перевод описания: Татьяна Фалимонова
-Слово «жираф» происходит от арабского зарафа и означает «нарядный».
Доп. информация: Дубляж найден в сети
Релиз - анвад-
Семпл-Качество: HDRip
Формат: AVI
Видео: 672x288 (2.33:1), 24.000 fps, XviD build 65 ~1189 kbps avg, 0.26 bit/pixel
Аудио : 48 kHz, MPEG Layer 3, 2 ch, ~128.00 kbps avg-MediaInfo
Общее
Полное имя : I:\Рипы А\Zarafa.2012_Dub_ *** _.avi
Формат : AVI
Формат/Информация : Audio Video Interleave
Размер файла : 745 Мбайт
Продолжительность : 1 ч. 18 м.
Общий поток : 1327 Кбит/сек
Программа кодирования : VirtualDubMod 1.5.10.3 | www.virtualdub-fr.org || (build 2550/release)
Библиотека кодирования : VirtualDubMod build 2550/release
Видео
Идентификатор : 0
Формат : MPEG-4 Visual
Профиль формата : Advanced Simple@L5
Параметр BVOP формата : 2
Параметр QPel формата : Нет
Параметр GMC формата : Без точки перехода
Параметр матрицы формата : Выборочная
Идентификатор кодека : XVID
Идентификатор кодека/Подсказка : XviD
Продолжительность : 1 ч. 18 м.
Битрейт : 1190 Кбит/сек
Ширина : 672 пикселя
Высота : 288 пикселей
Соотношение сторон : 2,35:1
Частота кадров : 24,000 кадра/сек
Цветовое пространство : YUV
Субдискретизация насыщенности : 4:2:0
Битовая глубина : 8 бит
Тип развёртки : Прогрессивная
Метод сжатия : С потерями
Бит/(Пиксели*Кадры) : 0.256
Размер потока : 668 Мбайт (90%)
Библиотека кодирования : XviD 65
Аудио
Идентификатор : 1
Формат : MPEG Audio
Версия формата : Version 1
Профиль формата : Layer 3
Идентификатор кодека : 55
Идентификатор кодека/Подсказка : MP3
Продолжительность : 1 ч. 18 м.
Вид битрейта : Постоянный
Битрейт : 128 Кбит/сек
Каналы : 2 канала
Частота : 48,0 КГц
Метод сжатия : С потерями
Размер потока : 71,9 Мбайт (10%)
Выравнивание : Соединение по промежуткам
Продолжительность промежутка : 42 мс. (1,00 видеокадр)
Время предзагрузки промежутка : 504 мс.
-Альтернативные раздачи:
[url=http://***/forum/tracker.php?nm=%D0%B7%D0%B0%D1%80%D0%B0%D1%84%D0%B0]Зарафа - AVO (Сербин), DVO (АнВад), Original (Fre), Subs (Rus, Fre)[/url]
Скачать

Скачать торрент! Зарафа / Zarafa (Реми Безансон / Rémi Bezançon, Жан-Кристоф Ли / Jean-Christophe Lie) [2012, мультфильм, семейный, HDRip] DUB

Как скачивать? · Что такое торрент? · Рейтинг и ограничения

Сайт не распространяет и не хранит электронные версии произведений, а лишь предоставляет доступ к создаваемому пользователями каталогу ссылок на торрент-файлы, которые содержат только списки хеш-сумм

[Профиль] [ЛС]
Показать сообщения:    
Ответить на тему

Текущее время: Сегодня 19:54

Часовой пояс: GMT + 4



Вы не можете начинать темы
Вы не можете отвечать на сообщения
Вы не можете редактировать свои сообщения
Вы не можете удалять свои сообщения
Вы не можете голосовать в опросах
Вы не можете прикреплять файлы к сообщениям
Вы не можете скачивать файлы