Девушка на пороге моего дома / A Girl At My Door / Dohee-ya (Джули Юнг / July Jung) [2014, Южная Корея, драма, WEB-DLRip] DVO (DeadSno & den904)

Ответить на тему
 
Автор Сообщение

user ®

Стаж: 13 лет

Сообщений: 15071

Пост Пост: #1 от 18-Май-2015 21:18

[Цитировать]

Девушка на пороге моего дома / A Girl At My Door / Dohee-ya- -Страна: Южная Корея
Жанр: драма
Год выпуска: 2014
Продолжительность: 01:59:16-Перевод: Любительский (двухголосый закадровый) (DeadSno & den904) по переводу (sergik1)-Cубтитры: нет
Оригинальная аудиодорожка: нет
Режиссер: Джули Юнг / July Jung
В ролях: Пэ Ду На, Хай-джин Янг, Ким Сэ Рон, Сон-кун Мун, Сон Сэ Пёк...
Описание: Девушку полицейского — Янг Ман, перевели в сельскую местность для наведения порядка. В маленьком городишке, она встречает девочку подростка, которая подвергается насилию со сторону отчима, после того как от них ушла мать. Янг Ман старается помочь девочке и в какой-то степени это у нее получается, но только нужна ли подростку эта помощь?
Релиз от - &
Сэмпл: http://multi-up.com/1049057
Качество видео: WEB-DLRip
Формат видео: AVI
Видео: MPEG-4 Visual at 741 Кбит/сек; 656 x 352 (1.864) at 23.976 fps
Аудио: MPEG Audio at 128 Кбит/сек; 2 канала, 48,0 КГц
Автор -
MediaInfo
Общее
Полное имя : D:\Фильмы\Азиатские\Девочка у моей двери\A Girl At My Door.2014.WEB-DLRip.745MB. rip by [Assassin's Creed].avi
Формат : AVI
Формат/Информация : Audio Video Interleave
Размер файла : 749 Мбайт
Продолжительность : 1 ч. 59 м.
Общий поток : 878 Кбит/сек
Программа кодирования : VirtualDubMod 1.5.10.3 | www.virtualdub-fr.org || (build 2550/release)
Библиотека кодирования : VirtualDubMod build 2550/release
Видео
Идентификатор : 0
Формат : MPEG-4 Visual
Профиль формата : Advanced Simple@L5
Параметр BVOP формата : 1
Параметр QPel формата : Нет
Параметр GMC формата : Без точки перехода
Параметр матрицы формата : Default (H.263)
Идентификатор кодека : XVID
Идентификатор кодека/Подсказка : XviD
Продолжительность : 1 ч. 59 м.
Битрейт : 741 Кбит/сек
Ширина : 656 пикселей
Высота : 352 пикселя
Соотношение сторон : 1,85:1
Частота кадров : 23,976 кадра/сек
Цветовое пространство : YUV
Субдискретизация насыщенности : 4:2:0
Битовая глубина : 8 бит
Тип развёртки : Прогрессивная
Метод сжатия : С потерями
Бит/(Пиксели*Кадры) : 0.134
Размер потока : 632 Мбайт (84%)
Библиотека кодирования : XviD 1.2.1 (UTC 2008-12-04)
Аудио
Идентификатор : 1
Формат : MPEG Audio
Версия формата : Version 1
Профиль формата : Layer 3
Идентификатор кодека : 55
Идентификатор кодека/Подсказка : MP3
Продолжительность : 1 ч. 59 м.
Вид битрейта : Постоянный
Битрейт : 128 Кбит/сек
Каналы : 2 канала
Частота : 48,0 КГц
Метод сжатия : С потерями
Размер потока : 109 Мбайт (15%)
Выравнивание : Соединение по промежуткам
Продолжительность промежутка : 42 мс. (1,00 видеокадр)
Время предзагрузки промежутка : 504 мс.
Библиотека кодирования : LAME3.99r
Настройки программы : -m s -V 4 -q 2 -lowpass 17 -b 128
Скриншот c названием фильма Скриншоты
Скачать

Скачать торрент! Девушка на пороге моего дома / A Girl At My Door / Dohee-ya (Джули Юнг / July Jung) [2014, Южная Корея, драма, WEB-DLRip] DVO (DeadSno & den904)

Как скачивать? · Что такое торрент? · Рейтинг и ограничения

Сайт не распространяет и не хранит электронные версии произведений, а лишь предоставляет доступ к создаваемому пользователями каталогу ссылок на торрент-файлы, которые содержат только списки хеш-сумм

[Профиль] [ЛС]
Показать сообщения:    
Ответить на тему

Текущее время: Сегодня 18:28

Часовой пояс: GMT + 4



Вы не можете начинать темы
Вы не можете отвечать на сообщения
Вы не можете редактировать свои сообщения
Вы не можете удалять свои сообщения
Вы не можете голосовать в опросах
Вы не можете прикреплять файлы к сообщениям
Вы не можете скачивать файлы