Незнайка в Солнечном городе / 10 серий (П. Мурашов, О. Розовская, Ю. Трофимов, Б. Ардов, Н. Шорина) [1976-1977, мультфильм, DVB]

Ответить на тему
 
Автор Сообщение

user ®

Стаж: 7 лет 7 месяцев

Сообщений: 20008

Пост Пост: #1 от 17-Май-2015 23:33

[Цитировать]

Незнайка в Солнечном городе
Год выпуска: 1976-1977
Страна: СCCР
Жанр: кукольный мультфильм
Продолжительность: 02:56:36
Русские субтитры: нет
Режиссёр: П. Мурашов, Ольга Розовская, Юрий Трофимов, Борис Ардов, Нина Шорина
Описание: мультфильм о том, как в цветочном городе живут малыши и малышки, добрые и веселые человечки, самым озорным из которых является Незнайка. Однажды от подруги Кнопочки Незнайка узнает, что, совершив подряд три добрых поступка, можно получить от волшебника волшебную палочку. Незнайка начинает помогать своим друзьям, и действительно, вскоре появляется волшебник и заслуженно дарит Незнайке палочку, но предупреждает, что она потеряет свою силу, если мальчик совершит три скверных поступка.
И вот, Незнайка с друзьями, Кнопочкой и Пестреньким, отправляются в Солнечный город, где их ожидают необыкновенные приключения ...
1. "Как Незнайка совершал хорошие поступки. 1 серия" 1976г
2. "Встреча с Волшебником. 2 серия" 1976г.
3. "Превращения начинаются. 3 серия" 1976г.
4. "Побег. 4 серия" 1976г.
5. "Превращения продолжаются. 5 серия" 1976г
6. "Приключения трех ослов. 6 серия" 1976г.
7. "Удивительные подвиги. 7 серия" 1976г.
8. "Снова вместе . 8 серия" 1976г.
9. "Переполох в зоопарке. 9 серия" 1977г.
10. "Волшебник появляется снова. 10 серия" 1977г.
Доп. информация: по мотивам романа-сказки Николая Носова «Незнайка в Солнечном городе»

Релиз группы:
Трансляция спутникового канала:

Качество видео: DVB
Формат видео: MPEG-PS
Видео: MPEG2 Video, 720x576 (4:3), 25 fps, 3000 kbps
Аудио: MPEG Audiо, 2 сh, 48 kHz, 160 kbps
Сравнение
[url=http://***/forum/viewtopic.php?t=3352513]http://***/forum/viewtopic.php?t=3352513[/url]
http://screenshotcomparison.com/comparison/126978
[url=http://***/forum/viewtopic.php?t=296194]http://***/forum/viewtopic.php?t=296194[/url]
http://screenshotcomparison.com/comparison/126979
MediaInfo
General
Complete name : D:\Незнайка в Солнечном городе\01. Как Незнайка совершал хорошие поступки. (1976)_DVB by SLuMeP.mpg
Format : MPEG-PS
File size : 363 MiB
Duration : 15mn 33s
Overall bit rate mode : Variable
Overall bit rate : 3 262 Kbps
Video
ID : 224 (0xE0)
Format : MPEG Video
Format version : Version 2
Format profile : Main@Main
Format settings, BVOP : Yes
Format settings, Matrix : Custom
Format settings, GOP : M=3, N=12
Format settings, picture st : Frame
Duration : 15mn 33s
Bit rate mode : Variable
Bit rate : 3 037 Kbps
Maximum bit rate : 15.0 Mbps
Width : 720 pixels
Height : 576 pixels
Display aspect ratio : 4:3
Frame rate : 25.000 fps
Standard : PAL
Color space : YUV
Chroma subsampling : 4:2:0
Bit depth : 8 bits
Scan type : Interlaced
Scan order : Top Field First
Compression mode : Lossy
Bits/(Pixel*Frame) : 0.293
Time code of first frame : 00:00:00:00
Time code source : Group of pictures header
GOP, Open/Closed : Open
Stream size : 338 MiB (93%)
GOP, Open/Closed of first f : Closed
Audio
ID : 192 (0xC0)
Format : MPEG Audio
Format version : Version 1
Format profile : Layer 2
Duration : 15mn 33s
Bit rate mode : Constant
Bit rate : 160 Kbps
Channel(s) : 2 channels
Sampling rate : 48.0 KHz
Compression mode : Lossy
Stream size : 17.8 MiB (5%)
Скриншоты
Скачать

Скачать торрент!

Как скачивать? · Что такое торрент? · Рейтинг и ограничения

Сайт не распространяет и не хранит электронные версии произведений, а лишь предоставляет доступ к создаваемому пользователями каталогу ссылок на торрент-файлы, которые содержат только списки хеш-сумм

[Профиль] [ЛС]
Показать сообщения:    
Ответить на тему

Текущее время: Сегодня 15:38

Часовой пояс: GMT + 4



Вы не можете начинать темы
Вы не можете отвечать на сообщения
Вы не можете редактировать свои сообщения
Вы не можете удалять свои сообщения
Вы не можете голосовать в опросах
Вы не можете прикреплять файлы к сообщениям
Вы не можете скачивать файлы