Заберите своих мертвецов / Take away their dead (Ирина Зуй) [2010, Россия, Драма, HDRip] + Sub Rus

Ответить на тему
 
Автор Сообщение

user ®

Стаж: 7 лет 7 месяцев

Сообщений: 20008

Пост Пост: #1 от 17-Май-2015 20:27

[Цитировать]

Заберите своих мертвецов / Take away their dead
Страна: Россия
Жанр: Драма
Год выпуска: 2010
Продолжительность: 00:39:59
Перевод: Не требуется
Cубтитры: русские
Режиссер: Ирина Зуй
В ролях: Евгений Ткачук, Александр Ткачук, Кирилл Болтаев, Ричард Бондарев, Михаил Очкасов, Алла Смирнова, Мартина Видеманн, Юлия Брамикова, Надежда Герберг, Марк Зенгер, Виктор Тимшин.
Описание: Все средства хороши для того, чтобы заработать на новую счастливую жизнь. Сергей занимается раскопками на полях сражений Второй мировой войны в подмосковной глуши: отыскивает останки погибших немецких солдат, а потом вытряхивает деньги из их уцелевших родственников. Он мечтает наконец-то разбогатеть, переехать от матери в отдельную квартиру, а то и вовсе "уехать к бошам". Но война, однажды начавшись, никогда не заканчивается.
Сэмпл: http://multi-up.com/1048704
Качество видео: HDRip
Формат видео: MP4
Видео: MPEG4 Video (H264), 1280x720, 25fps 6120 Kbps
Аудио: AAC, 44100Hz, 2Ch 202kbps
Формат субтитров: hardsub (неотключаемые)
Доп. информация о субтитрах: На немецкую речь
MediaInfo
Format : MPEG-4
Format profile : Base Media / Version 2
Codec ID : mp42
File size : 575 MiB
Duration : 39mn 59s
Overall bit rate mode : Variable
Overall bit rate : 2 009 Kbps
Encoded date : UTC 2015-04-05 10:46:34
Tagged date : UTC 2015-04-05 10:46:34
gsst : 0
gstd : 2399966
gssd : B4D25FC05HH1431132661756909
gshh : r2---sn-gvnuxaxjvh-c35s.googlevideo.com
Video
ID : 1
Format : AVC
Format/Info : Advanced Video Codec
Format profile : High@L3.1
Format settings, CABAC : Yes
Format settings, ReFrames : 1 frame
Format settings, GOP : M=1, N=60
Codec ID : avc1
Codec ID/Info : Advanced Video Coding
Duration : 39mn 59s
Bit rate : 1 814 Kbps
Maximum bit rate : 6 120 Kbps
Width : 1 280 pixels
Height : 720 pixels
Display aspect ratio : 16:9
Frame rate mode : Constant
Frame rate : 25.000 fps
Color space : YUV
Chroma subsampling : 4:2:0
Bit depth : 8 bits
Scan type : Progressive
Bits/(Pixel*Frame) : 0.079
Stream size : 519 MiB (90%)
Encoded date : UTC 1970-01-01 00:00:00
Tagged date : UTC 2015-04-05 10:47:43
Audio
ID : 2
Format : AAC
Format/Info : Advanced Audio Codec
Format profile : LC
Codec ID : 40
Duration : 39mn 59s
Bit rate mode : Variable
Bit rate : 192 Kbps
Maximum bit rate : 202 Kbps
Channel(s) : 2 channels
Channel positions : Front: L R
Sampling rate : 44.1 KHz
Compression mode : Lossy
Stream size : 54.9 MiB (10%)
Скриншот c названием фильма Скриншоты Скачавших прошу не покидать данную раздачу. Спасибо за внимание.
Скачать

Скачать торрент!

Как скачивать? · Что такое торрент? · Рейтинг и ограничения

Сайт не распространяет и не хранит электронные версии произведений, а лишь предоставляет доступ к создаваемому пользователями каталогу ссылок на торрент-файлы, которые содержат только списки хеш-сумм

[Профиль] [ЛС]
Показать сообщения:    
Ответить на тему

Текущее время: Сегодня 12:09

Часовой пояс: GMT + 4



Вы не можете начинать темы
Вы не можете отвечать на сообщения
Вы не можете редактировать свои сообщения
Вы не можете удалять свои сообщения
Вы не можете голосовать в опросах
Вы не можете прикреплять файлы к сообщениям
Вы не можете скачивать файлы