Взломщики сердец / I Heart Huckabees (Дэвид О. Расселл / David O. Russell) [2004, США, Великобритания, Германия, комедия, HDTVRip 720p] MVO + Sub Eng + Original Eng

Ответить на тему
 
Автор Сообщение

user ®

Стаж: 7 лет 7 месяцев

Сообщений: 20008

Пост Пост: #1 от 17-Май-2015 11:09

[Цитировать]

Взломщики сердец / I Heart Huckabees
Страна: США, Великобритания, Германия
Жанр: Комедия
Год выпуска: 2004
Продолжительность: 01:41:47
Перевод: Профессиональный (многоголосый закадровый)
Cубтитры: английские
Оригинальная аудиодорожка: английский
Режиссер: Дэвид О. Расселл / David O. Russell
В ролях: Наоми Уоттс, Марк Уолберг, Джейсон Шварцман, Джуд Лоу, Дастин Хоффман, Лили Томлин, Изабель Юппер, Джона Хилл, Кевин Данн, Типпи Хедрен, Айла Фишер, Шанайя Твейн
Описание: Семейная пара Джеффов решила стать детективами по решению личных эмоциональных проблем. Их клиент — Альберт Марковски, мучимый страхами по поводу будущей карьеры в популярной розничной сети. В процессе расследования Джеффы знакомятся с коллегами и близкими Альберта и понимают, что все они тоже нуждаются в их помощи…
Сэмпл: http://multi-up.com/1048739
Качество видео: HDTV 720p
Формат видео: MKV
Видео: MPEG-4 AVC, 1280x538, 25 fps, ~5713 kbps avg, 0.33 bit/pixel
Аудио: Russian: 48 kHz, AC3, 6 ch, 448.00 kbps avg
Аудио 2: English: 48 kHz, AC3, 6 ch, 448.00 kbps avg
Формат субтитров: softsub (SRT)
MediaInfo
General
Unique ID : 239022374188960722887916501675655908514 (0xB3D208E7884F85B1ACC6C0CD88414CA2)
Complete name : I.Heart.Huckabees.2004.ENG.720p.HDTV.x264.mkv
Format : Matroska
Format version : Version 4 / Version 2
File size : 4.69 GiB
Duration : 1h 41mn
Overall bit rate : 6 589 Kbps
Encoded date : UTC 2015-05-15 17:32:11
Writing application : mkvmerge v7.9.0 ('Birds') 64bit
Writing library : libebml v1.3.1 + libmatroska v1.4.2
_STATISTICS_WRITING_APP : mkvmerge v7.9.0 ('Birds') 64bit
_STATISTICS_WRITING_DATE_UT : 2015-05-15 17:32:11
_STATISTICS_TAGS : BPS DURATION NUMBER_OF_FRAMES NUMBER_OF_BYTES
DURATION : 01:36:59.080000000
NUMBER_OF_FRAMES : 1708
NUMBER_OF_BYTES : 88495
Video
ID : 1
Format : AVC
Format/Info : Advanced Video Codec
Format profile : High@L5.1
Format settings, CABAC : Yes
Format settings, ReFrames : 8 frames
Codec ID : V_MPEG4/ISO/AVC
Duration : 1h 41mn
Bit rate : 5 713 Kbps
Width : 1 280 pixels
Height : 538 pixels
Display aspect ratio : 2.40:1
Frame rate mode : Constant
Frame rate : 25.000 fps
Color space : YUV
Chroma subsampling : 4:2:0
Bit depth : 8 bits
Scan type : Progressive
Bits/(Pixel*Frame) : 0.332
Stream size : 3.95 GiB (84%)
Writing library : x264 core 54 svn-654
Encoding settings : cabac=1 / ref=5 / deblock=1:-1:0 / analyse=0x3:0x133 / me=hex / subme=6 / brdo=1 / mixed_ref=0 / me_range=16 / chroma_me=1 / trellis=1 / 8x8dct=1 / cqm=0 / deadzone=21,11 / chroma_qp_offset=0 / threads=2 / nr=0 / decimate=1 / mbaff=0 / bframes=3 / b_pyramid=1 / b_adapt=1 / b_bias=0 / direct=1 / wpredb=1 / bime=1 / keyint=250 / keyint_min=25 / scenecut=40(pre) / rc=2pass / bitrate=5713 / ratetol=1.0 / rceq='blurCplx^(1-qComp)' / qcomp=0.60 / qpmin=10 / qpmax=51 / qpstep=4 / cplxblur=20.0 / qblur=0.5 / ip_ratio=1.40 / pb_ratio=1.30
Language : English
Default : Yes
Forced : No
_STATISTICS_WRITING_APP : mkvmerge v7.9.0 ('Birds') 64bit
_STATISTICS_WRITING_DATE_UT : 2015-05-15 17:32:11
_STATISTICS_TAGS : BPS DURATION NUMBER_OF_FRAMES NUMBER_OF_BYTES
DURATION : 01:41:17.000000000
NUMBER_OF_FRAMES : 151925
NUMBER_OF_BYTES : 4344834793
Audio #1
ID : 2
Format : AC-3
Format/Info : Audio Coding 3
Mode extension : CM (complete main)
Format settings, Endianness : Big
Codec ID : A_AC3
Duration : 1h 41mn
Bit rate mode : Constant
Bit rate : 448 Kbps
Channel(s) : 6 channels
Channel positions : Front: L C R, Side: L R, LFE
Sampling rate : 48.0 KHz
Bit depth : 16 bits
Compression mode : Lossy
Stream size : 326 MiB (7%)
Language : Russian
Default : Yes
Forced : No
Audio #2
ID : 3
Format : AC-3
Format/Info : Audio Coding 3
Mode extension : CM (complete main)
Format settings, Endianness : Big
Codec ID : A_AC3
Duration : 1h 41mn
Bit rate mode : Constant
Bit rate : 448 Kbps
Channel(s) : 6 channels
Channel positions : Front: L C R, Side: L R, LFE
Sampling rate : 48.0 KHz
Bit depth : 16 bits
Compression mode : Lossy
Stream size : 326 MiB (7%)
Language : English
Default : No
Forced : No
Text
ID : 4
Format : UTF-8
Codec ID : S_TEXT/UTF8
Codec ID/Info : UTF-8 Plain Text
Language : English
Default : Yes
Forced : No
Скриншот c названием фильма Скриншоты
Скачать

Скачать торрент!

Как скачивать? · Что такое торрент? · Рейтинг и ограничения

Сайт не распространяет и не хранит электронные версии произведений, а лишь предоставляет доступ к создаваемому пользователями каталогу ссылок на торрент-файлы, которые содержат только списки хеш-сумм

[Профиль] [ЛС]
Показать сообщения:    
Ответить на тему

Текущее время: Сегодня 22:32

Часовой пояс: GMT + 4



Вы не можете начинать темы
Вы не можете отвечать на сообщения
Вы не можете редактировать свои сообщения
Вы не можете удалять свои сообщения
Вы не можете голосовать в опросах
Вы не можете прикреплять файлы к сообщениям
Вы не можете скачивать файлы