Из мрака / Из темноты / From the Dark (Конор МакМахон / Conor McMahon) [2014, Ирландия, ужасы, BDRemux 1080p] DVO (2D) + Sub Eng + Original Eng

Ответить на тему
 
Автор Сообщение

user ®

Стаж: 7 лет 7 месяцев

Сообщений: 20008

Пост Пост: #1 от 17-Май-2015 11:09

[Цитировать]

Из мрака / Из темноты / From the Dark
Страна: Ирландия
Студия: Virtuous Films
Жанр: ужасы
Год выпуска: 2014
Продолжительность: 01:30:06
Перевод: Любительский (двухголосый закадровый) 2D
Cубтитры: английские
Оригинальная аудиодорожка: английский
Режиссер: Конор МакМахон / Conor McMahon
В ролях: Ниам Алгар, Стивен Кромуэлл
Описание: Марк и Сара колесят по ирландской глубинке, и вдруг их машина глохнет. Пытаясь найти признаки жизни поблизости от места случившегося, парочка натыкается на деревенский дом с раненным мужчиной внутри и решает ему помочь. Это оказывается не самой удачной идеей — он нападает на ребят. Но и это не все — вскоре они понимают, что под покровом темноты кто-то еще жаждет их смерти.
Кинопоиск|Imdb|Сэмпл
Тип релиза: BDRemux 1080p
Контейнер: MKV
Видео: MPEG4 Video (H264) 1920x1080 23.976fps 29740 kbps
Аудио: Russian AC-3 / 6 ch / 48.0 KHz / 448 Kbps / DeadSno & den904
Аудио 2: English DTS-HD Master Audio 5.1 / 48 kHz / 1860 kbps / 16-bit (DTS Core: 5.1 / 48 kHz / 1509 kbps / 16-bit)
Аудио 3: English AC-3 / 2 ch / 48.0 KHz / 224 Kbps / Commentary
Формат субтитров: softsub (SRT)

MediaInfo
General
Unique ID : 251791094548090273393916595824578893783 (0xBD6D336C59469E8D9F4E5B5EE9C597D7)
Complete name : C:\Users\Вика\Desktop\From.the.Dark.2014.BDRemux.1080p.mkv
Format : Matroska
Format version : Version 4 / Version 2
File size : 20.3 GiB
Duration : 1h 30mn
Overall bit rate mode : Variable
Overall bit rate : 32.3 Mbps
Encoded date : UTC 2015-05-16 06:49:50
Writing application : mkvmerge v7.4.0 ('Circles') 64bit built on Dec 12 2014 12:19:56
Writing library : libebml v1.3.0 + libmatroska v1.4.1
DURATION : 01:16:15.133000000
NUMBER_OF_FRAMES : 380
NUMBER_OF_BYTES : 11434
_STATISTICS_WRITING_APP : mkvmerge v7.4.0 ('Circles') 64bit built on Dec 12 2014 12:19:56
_STATISTICS_WRITING_DATE_UTC : 2015-05-16 06:49:50
_STATISTICS_TAGS : BPS DURATION NUMBER_OF_FRAMES NUMBER_OF_BYTES
Video
ID : 1
Format : AVC
Format/Info : Advanced Video Codec
Format profile : High@L4.1
Format settings, CABAC : Yes
Format settings, ReFrames : 4 frames
Codec ID : V_MPEG4/ISO/AVC
Duration : 1h 30mn
Bit rate mode : Variable
Maximum bit rate : 33.0 Mbps
Width : 1 920 pixels
Height : 1 080 pixels
Display aspect ratio : 16:9
Frame rate mode : Constant
Frame rate : 23.976 fps
Color space : YUV
Chroma subsampling : 4:2:0
Bit depth : 8 bits
Scan type : Progressive
Title : MPEG-4 AVC / 29998 kbps / 1080p / 23.976 fps / 16:9 / High Profile 4.1
Language : English
Default : Yes
Forced : No
_STATISTICS_WRITING_APP : mkvmerge v7.4.0 ('Circles') 64bit built on Dec 12 2014 12:19:56
_STATISTICS_WRITING_DATE_UTC : 2015-05-16 06:49:50
_STATISTICS_TAGS : BPS DURATION NUMBER_OF_FRAMES NUMBER_OF_BYTES
DURATION : 01:30:05.901000000
NUMBER_OF_FRAMES : 129612
NUMBER_OF_BYTES : 20096193087
Audio #1
ID : 2
Format : AC-3
Format/Info : Audio Coding 3
Mode extension : CM (complete main)
Format settings, Endianness : Big
Codec ID : A_AC3
Duration : 1h 30mn
Bit rate mode : Constant
Bit rate : 448 Kbps
Channel(s) : 6 channels
Channel positions : Front: L C R, Side: L R, LFE
Sampling rate : 48.0 KHz
Bit depth : 16 bits
Compression mode : Lossy
Stream size : 289 MiB (1%)
Title : DVO (2D)
Language : Russian
Default : Yes
Forced : No
_STATISTICS_WRITING_APP : mkvmerge v7.4.0 ('Circles') 64bit built on Dec 12 2014 12:19:56
_STATISTICS_WRITING_DATE_UTC : 2015-05-16 06:49:50
_STATISTICS_TAGS : BPS DURATION NUMBER_OF_FRAMES NUMBER_OF_BYTES
DURATION : 01:30:05.910000000
NUMBER_OF_FRAMES : 506804
NUMBER_OF_BYTES : 1256682956
Audio #2
ID : 3
Format : DTS
Format/Info : Digital Theater Systems
Format profile : MA / Core
Mode : 16
Format settings, Endianness : Big
Codec ID : A_DTS
Duration : 1h 30mn
Bit rate mode : Variable
Bit rate : Unknown / 1 509 Kbps
Channel(s) : 6 channels
Channel positions : Front: L C R, Side: L R, LFE
Sampling rate : 48.0 KHz
Bit depth : 16 bits
Compression mode : Lossless / Lossy
Title : DTS-HD Master Audio 5.1 / 48 kHz / 1860 kbps / 16-bit (DTS Core: 5.1 / 48 kHz / 1509 kbps / 16-bit)
Language : English
Default : No
Forced : No
Audio #3
ID : 4
Format : AC-3
Format/Info : Audio Coding 3
Mode extension : CM (complete main)
Format settings, Endianness : Big
Codec ID : A_AC3
Duration : 1h 30mn
Bit rate mode : Constant
Bit rate : 224 Kbps
Channel(s) : 2 channels
Channel positions : Front: L R
Sampling rate : 48.0 KHz
Bit depth : 16 bits
Compression mode : Lossy
Stream size : 144 MiB (1%)
Title : Commentary with Writer-Director-Producer Conor McMahon
Language : English
Default : No
Forced : No
_STATISTICS_WRITING_APP : mkvmerge v7.4.0 ('Circles') 64bit built on Dec 12 2014 12:19:56
_STATISTICS_WRITING_DATE_UTC : 2015-05-16 06:49:50
_STATISTICS_TAGS : BPS DURATION NUMBER_OF_FRAMES NUMBER_OF_BYTES
DURATION : 01:30:05.920000000
NUMBER_OF_FRAMES : 168935
NUMBER_OF_BYTES : 151365760
Text
ID : 5
Format : UTF-8
Codec ID : S_TEXT/UTF8
Codec ID/Info : UTF-8 Plain Text
Language : English
Default : No
Forced : No
Menu
00:00:00.000 : en:Breaking Ground
00:05:43.509 : en:Country Drive
00:09:38.911 : en:Recalculating
00:13:42.404 : en:Nightfall
00:16:56.098 : en:The Farmhouse
00:21:43.927 : en:He Needs Our Help
00:24:36.766 : en:Gone Mad
00:28:54.482 : en:Back to the Car
00:31:54.078 : en:He's Scared of the...
00:35:36.801 : en:Wounded, Trapped
00:39:16.812 : en:Smoked Out
00:43:57.092 : en:Spider to the Fly
00:46:43.258 : en:Ready?
00:51:06.104 : en:The Tractor
00:55:59.939 : en:Candles
00:59:12.840 : en:Changeover
01:05:30.301 : en:Sacrifice
01:11:47.261 : en:Hunting
01:17:15.672 : en:Into the Bog
01:21:47.193 : en:Last Stand
01:27:07.931 : en:End Credit
Скриншоты
Скачать

Скачать торрент!

Как скачивать? · Что такое торрент? · Рейтинг и ограничения

Сайт не распространяет и не хранит электронные версии произведений, а лишь предоставляет доступ к создаваемому пользователями каталогу ссылок на торрент-файлы, которые содержат только списки хеш-сумм

[Профиль] [ЛС]
Показать сообщения:    
Ответить на тему

Текущее время: Сегодня 23:17

Часовой пояс: GMT + 4



Вы не можете начинать темы
Вы не можете отвечать на сообщения
Вы не можете редактировать свои сообщения
Вы не можете удалять свои сообщения
Вы не можете голосовать в опросах
Вы не можете прикреплять файлы к сообщениям
Вы не можете скачивать файлы