Похождения Вареса: в поисках Шерифа / Vares Sheriffi (Ханну Салонен / Hannu Salonen) [2015, Финляндия, комедия, детектив, DVDRip] VO (Хихидок)

Ответить на тему
 
Автор Сообщение

user ®

Стаж: 7 лет 7 месяцев

Сообщений: 20008

Пост Пост: #1 от 17-Май-2015 01:54

[Цитировать]

Похождения Вареса: в поисках Шерифа / Vares Sheriffi
Страна: Финляндия
Жанр: комедия, детектив
Год выпуска: 2015
Продолжительность: 01:30:18
Перевод: Одноголосый закадровый (Хихиdok)
Cубтитры: нет
Режиссер: Ханну Салонен / Hannu Salonen
В ролях: Анти Рэйни, Юкка Пало, Ярмо Перяла, Конста Мякила
Описание: Очередной фильм из популярной финской франшизы о похождениях частного детектива Юсси Вареса. На этот раз его нанимает экстравагантный миллионер, который хочет найти убийц своей крестницы и ее парня.
Доп. информация:
Фильм представляет собой безумную мешанину из пародийной комедии и детектива.
Перевод: М.Васильев
Озвучка: Хихиdok
Еще фильмы о приключениях Юсси Вареса:
[url=http://***/forum/viewtopic.php?t=541143]Варес[/url]
[url=http://***/forum/viewtopic.php?t=3797340]Варес 2[/url]
[url=http://***/forum/viewtopic.php?t=4090491]Варес - поцелуй зла[/url]
IMDB
Сэмпл
Качество видео: DVDRip
Формат видео: MKV
Видео: 602 Kbps, 720x302 (2.40:1), 23 976 fps, AVC
Аудио: 192 Kbps, 44.1 KHz, 2 ch, MPEG Audio MP 3
MediaInfo
General
Unique ID : 246460148382483503737194360732648049764 (0xB96A7F7C1004CC2997E4E709C2098C64)
Complete name : C:\Users\master\Downloads\fico-varessd.mkv
Format : Matroska
Format version : Version 1
File size : 523 MiB
Duration : 1h 30mn
Overall bit rate : 810 Kbps
Encoded date : UTC 2015-05-16 11:32:06
Writing application : mkvmerge v2.3.0 ('Freak U') built on Sep 8 2008 18:32:16
Writing library : libebml v0.7.7 + libmatroska v0.8.1
Video
ID : 1
Format : AVC
Format/Info : Advanced Video Codec
Format profile : High@L3.1
Format settings, CABAC : Yes
Format settings, ReFrames : 5 frames
Codec ID : V_MPEG4/ISO/AVC
Duration : 1h 30mn
Bit rate : 602 Kbps
Width : 720 pixels
Height : 302 pixels
Display aspect ratio : 2.40:1
Frame rate mode : Constant
Frame rate : 23.976 fps
Color space : YUV
Chroma subsampling : 4:2:0
Bit depth : 8 bits
Scan type : Progressive
Bits/(Pixel*Frame) : 0.115
Stream size : 389 MiB (74%)
Writing library : x264 core 146 r2538 121396c
Encoding settings : cabac=1 / ref=5 / deblock=1:0:0 / analyse=0x3:0x113 / me=umh / subme=8 / psy=1 / psy_rd=1.00:0.00 / mixed_ref=1 / me_range=16 / chroma_me=1 / trellis=1 / 8x8dct=1 / cqm=0 / deadzone=21,11 / fast_pskip=1 / chroma_qp_offset=-2 / threads=6 / lookahead_threads=1 / sliced_threads=0 / nr=0 / decimate=1 / interlaced=0 / bluray_compat=0 / constrained_intra=0 / bframes=3 / b_pyramid=2 / b_adapt=2 / b_bias=0 / direct=3 / weightb=1 / open_gop=0 / weightp=2 / keyint=250 / keyint_min=23 / scenecut=40 / intra_refresh=0 / rc_lookahead=50 / rc=crf / mbtree=1 / crf=19.0 / qcomp=0.60 / qpmin=0 / qpmax=69 / qpstep=4 / ip_ratio=1.40 / aq=1:1.00
Language : English
Default : Yes
Forced : No
Matrix coefficients : BT.709
Audio
ID : 2
Format : MPEG Audio
Format version : Version 1
Format profile : Layer 3
Codec ID : A_MPEG/L3
Codec ID/Hint : MP3
Duration : 1h 30mn
Bit rate mode : Constant
Bit rate : 192 Kbps
Channel(s) : 2 channels
Sampling rate : 44.1 KHz
Compression mode : Lossy
Stream size : 124 MiB (24%)
Default : Yes
Forced : No
Скриншот c названием фильма Скриншоты
Скачать

Скачать торрент!

Как скачивать? · Что такое торрент? · Рейтинг и ограничения

Сайт не распространяет и не хранит электронные версии произведений, а лишь предоставляет доступ к создаваемому пользователями каталогу ссылок на торрент-файлы, которые содержат только списки хеш-сумм

[Профиль] [ЛС]
Показать сообщения:    
Ответить на тему

Текущее время: Сегодня 22:16

Часовой пояс: GMT + 4



Вы не можете начинать темы
Вы не можете отвечать на сообщения
Вы не можете редактировать свои сообщения
Вы не можете удалять свои сообщения
Вы не можете голосовать в опросах
Вы не можете прикреплять файлы к сообщениям
Вы не можете скачивать файлы