Лофт / The Loft (Эрик Ван Лой / Erik Van Looy) [2014, Бельгия, США, триллер, BDRip 1080p] Dub + Sub Eng + Original Eng

Ответить на тему
 
Автор Сообщение

user ®

Стаж: 7 лет 7 месяцев

Сообщений: 20008

Пост Пост: #1 от 16-Май-2015 22:48

[Цитировать]

Лофт / The Loft
Страна: Бельгия, США
Студия: Anonymous Content
Жанр: Триллер
Год выпуска: 2014
Продолжительность: 01:42:59
Перевод: Профессиональный (дублированный)
Cубтитры: английские
Оригинальная аудиодорожка: английский
Режиссер: Эрик Ван Лой / Erik Van Looy
В ролях: Карл Урбан, Джеймс Марсден, Вентворт Миллер, Эрик Стоунстрит, Маттиас Шонартс, Изабель Лукас, Рэйчел Тейлор, Рона Митра, Валери Крус, Кали Роша, Элейн Кэссиди, Маргарита Левиева, Кристин Леман, Роберт Уиздом, Рик Райц, Грэм Беккел, Кэти Дейч, Дора Мэдисон Бёрдж, Синди Вудс, Лора Кайюэтт
Описание: В центре событий – пятеро старых друзей. Все они взрослые, женатые мужчины. Чтобы разнообразить свою обыденную семейную жизнь они решаю вместе снять комфортабельный лофт, чтобы периодически изменять здесь своим женам. Их план удался, и они поочередно встречаются в лофте со своими любовницами. Однако судьба подкидывает им неприятный сюрприз. Однажды утром все пятеро друзей обнаруживают в своем «убежище» труп неизвестной молодой женщины. Поскольку следов взлома на двери не обнаружено, а ключи от помещения есть только у пятерых мужчин, то у каждого из них возникают вопросы к друг другу.

Тип релиза: BDRip 1080p
Контейнер: MKV
Видео: MPEG-4 AVC, 15.0 Mбит/с, 1920x800, 23,976 fps
Аудио: Rus, AC3, 448 kb/s (6 ch), 48 kHz
Аудио 2: Eng, DTS, 1510 kb/s (6 ch), 48 kHz
Формат субтитров: softsub (SRT)
MediaInfo
Format : Matroska
Format version : Version 4 / Version 2
File size : 12.4 GiB
Duration : 1h 42mn
Overall bit rate : 17.3 Mbps
Movie name : Лофт. (Tonik)
Encoded date : UTC 2015-05-16 08:24:07
Writing application : mkvmerge v7.1.0 ('Good Love') 64bit built on Jul 27 2014 13:06:55
Writing library : libebml v1.3.0 + libmatroska v1.4.1
_STATISTICS_WRITING_APP : mkvmerge v7.1.0 ('Good Love') 64bit built on Jul 27 2014 13:06:55
_STATISTICS_WRITING_DATE_UTC : 2015-05-16 08:24:07
_STATISTICS_TAGS : BPS DURATION NUMBER_OF_FRAMES NUMBER_OF_BYTES
DURATION : 01:36:43.214000000
NUMBER_OF_FRAMES : 1797
NUMBER_OF_BYTES : 59442
Video
ID : 1
Format : AVC
Format/Info : Advanced Video Codec
Format profile : High@L4.1
Format settings, CABAC : Yes
Format settings, ReFrames : 5 frames
Codec ID : V_MPEG4/ISO/AVC
Duration : 1h 42mn
Bit rate : 15.0 Mbps
Width : 1 920 pixels
Height : 800 pixels
Display aspect ratio : 2.40:1
Frame rate mode : Constant
Frame rate : 23.976 fps
Color space : YUV
Chroma subsampling : 4:2:0
Bit depth : 8 bits
Scan type : Progressive
Bits/(Pixel*Frame) : 0.407
Stream size : 10.8 GiB (87%)
Writing library : x264 core 146 r2538 121396c
Encoding settings : cabac=1 / ref=5 / deblock=1:-2:-2 / analyse=0x3:0x113 / me=umh / subme=11 / psy=1 / psy_rd=1.00:0.00 / mixed_ref=1 / me_range=24 / chroma_me=1 / trellis=2 / 8x8dct=1 / cqm=0 / deadzone=21,11 / fast_pskip=0 / chroma_qp_offset=-2 / threads=12 / lookahead_threads=2 / sliced_threads=0 / nr=0 / decimate=1 / interlaced=0 / bluray_compat=0 / constrained_intra=0 / bframes=8 / b_pyramid=2 / b_adapt=2 / b_bias=0 / direct=1 / weightb=1 / open_gop=0 / weightp=2 / keyint=240 / keyint_min=23 / scenecut=40 / intra_refresh=0 / rc_lookahead=40 / rc=crf / mbtree=0 / crf=17.0 / qcomp=0.65 / qpmin=0 / qpmax=69 / qpstep=4 / vbv_maxrate=62500 / vbv_bufsize=78125 / crf_max=0.0 / nal_hrd=none / filler=0 / ip_ratio=1.25 / pb_ratio=1.15 / aq=1:0.70
Language : English
Default : Yes
Forced : No
Audio #1
ID : 2
Format : AC-3
Format/Info : Audio Coding 3
Mode extension : CM (complete main)
Format settings, Endianness : Big
Codec ID : A_AC3
Duration : 1h 42mn
Bit rate mode : Constant
Bit rate : 448 Kbps
Channel(s) : 6 channels
Channel positions : Front: L C R, Side: L R, LFE
Sampling rate : 48.0 KHz
Bit depth : 16 bits
Compression mode : Lossy
Stream size : 330 MiB (3%)
Language : Russian
Default : Yes
Forced : No
Audio #2
ID : 3
Format : DTS
Format/Info : Digital Theater Systems
Mode : 16
Format settings, Endianness : Big
Codec ID : A_DTS
Duration : 1h 42mn
Bit rate mode : Constant
Bit rate : 1 509 Kbps
Channel(s) : 6 channels
Channel positions : Front: L C R, Side: L R, LFE
Sampling rate : 48.0 KHz
Bit depth : 24 bits
Compression mode : Lossy
Stream size : 1.09 GiB (9%)
Language : English
Default : No
Forced : No
Text
ID : 4
Format : UTF-8
Codec ID : S_TEXT/UTF8
Codec ID/Info : UTF-8 Plain Text
Language : English
Default : No
Forced : No
Menu
00:00:00.000 : en:00:00:00.000
00:04:30.479 : en:00:04:30.479
00:10:29.087 : en:00:10:29.087
00:14:26.616 : en:00:14:26.616
00:20:08.582 : en:00:20:08.582
00:26:40.599 : en:00:26:40.599
00:32:04.548 : en:00:32:04.548
00:38:04.407 : en:00:38:04.407
00:42:38.806 : en:00:42:38.806
00:46:53.978 : en:00:46:53.978
00:50:19.600 : en:00:50:19.600
00:54:29.099 : en:00:54:29.099
01:01:50.957 : en:01:01:50.957
01:08:45.621 : en:01:08:45.621
01:13:09.093 : en:01:13:09.093
01:20:52.723 : en:01:20:52.723
01:25:55.817 : en:01:25:55.817
01:30:09.404 : en:01:30:09.404
01:35:45.782 : en:01:35:45.782
01:37:45.985 : en:01:37:45.985
Скриншоты
Скачать

Скачать торрент!

Как скачивать? · Что такое торрент? · Рейтинг и ограничения

Сайт не распространяет и не хранит электронные версии произведений, а лишь предоставляет доступ к создаваемому пользователями каталогу ссылок на торрент-файлы, которые содержат только списки хеш-сумм

[Профиль] [ЛС]
Показать сообщения:    
Ответить на тему

Текущее время: Сегодня 16:31

Часовой пояс: GMT + 4



Вы не можете начинать темы
Вы не можете отвечать на сообщения
Вы не можете редактировать свои сообщения
Вы не можете удалять свои сообщения
Вы не можете голосовать в опросах
Вы не можете прикреплять файлы к сообщениям
Вы не можете скачивать файлы