Капитан Саблезуб и сокровища Лама Рама / Kaptein Sabeltann og skatten i Lama Rama (Йон Андреас Андерсен, Лиза Мари Гамлем / John Andreas Andersen, Lisa Marie Gamlem) [2014, Норвегия, приключения, BDRip 1080p] VO (Береговых) + Sub Nor + Original Nor

Ответить на тему
 
Автор Сообщение

user ®

Стаж: 7 лет 7 месяцев

Сообщений: 20008

Пост Пост: #1 от 16-Май-2015 10:24

[Цитировать]

Капитан Саблезуб и сокровища Лама Рама / Kaptein Sabeltann og skatten i Lama Rama
Страна: Норвегия
Студия: Norwegian Pirates / Storm Films / Storm Productions
Жанр: приключения
Год выпуска: 2014
Продолжительность: 01:36:18
Перевод: Одноголосый закадровый В. Береговых - по переводу Михаила Васильева
Cубтитры: норвежские
Оригинальная аудиодорожка: норвежский
Режиссер: Йон Андреас Андерсен, Лиза Мари Гамлем / John Andreas Andersen, Lisa Marie Gamlem
В ролях: Тува Новотны, Андерс Баасмо Кристиансен, Фридтьов Сохейм, Одд Магнус Уильямсон, Карре Хаген Сиднесс, Пиа Тьелта, Йон Ёигарден, Роберт Скйэрстад, Нильс Йорген Каалстад, Хами Белаль
Описание: Отважный и самоуверенный капитан Саблезуб бороздит моря и океаны со своей командой в поисках сокровищ. Естественно, в пути они переживают массу приключений: на них нападает целая армия злобных обезьян, их судно угоняет конкурирующая шайка пиратов, они оказываются участниками государственного переворота, а в довершении всего, у них юнга, который не умеет плавать…

Сэмпл: http://multi-up.com/1048646
Тип релиза: BDRip 1080p
Контейнер: MKV
Видео: MPEG4 Video (H264) 1920x804 24fps 15.0 Mbps
Аудио: Russian AC-3 / 2 ch / 48.0 KHz / 256 Kbps
Аудио 2: Norwegian DTS / 6 ch / 48.0 KHz / 1 509 Kbps
Формат субтитров: softsub (SRT)

MediaInfo
General
Unique ID : 251519103045155938174130701201113175727 (0xBD38D134EFF02D64A7901AF5474956AF)
Complete name : C:\Users\Вика\Desktop\Kaptein.Sabeltann.og.Skatten.I.Lama.Rama.2014.1080p.BDRip.mkv
Format : Matroska
Format version : Version 4 / Version 2
File size : 11.3 GiB
Duration : 1h 36mn
Overall bit rate : 16.8 Mbps
Encoded date : UTC 2015-05-15 08:11:05
Writing application : mkvmerge v7.4.0 ('Circles') 64bit built on Dec 12 2014 12:19:56
Writing library : libebml v1.3.0 + libmatroska v1.4.1
DURATION : 01:30:52.500000000
NUMBER_OF_FRAMES : 699
NUMBER_OF_BYTES : 26858
_STATISTICS_WRITING_APP : mkvmerge v7.4.0 ('Circles') 64bit built on Dec 12 2014 12:19:56
_STATISTICS_WRITING_DATE_UTC : 2015-05-15 08:11:05
_STATISTICS_TAGS : BPS DURATION NUMBER_OF_FRAMES NUMBER_OF_BYTES
Video
ID : 1
Format : AVC
Format/Info : Advanced Video Codec
Format profile : High@L4.1
Format settings, CABAC : Yes
Format settings, ReFrames : 5 frames
Codec ID : V_MPEG4/ISO/AVC
Duration : 1h 36mn
Bit rate : 15.0 Mbps
Width : 1 920 pixels
Height : 804 pixels
Display aspect ratio : 2.40:1
Frame rate mode : Constant
Frame rate : 24.000 fps
Color space : YUV
Chroma subsampling : 4:2:0
Bit depth : 8 bits
Scan type : Progressive
Bits/(Pixel*Frame) : 0.405
Stream size : 9.86 GiB (87%)
Writing library : x264 core 144 r2525 40bb568
Encoding settings : cabac=1 / ref=5 / deblock=1:-3:-3 / analyse=0x3:0x133 / me=umh / subme=11 / psy=1 / psy_rd=0.95:0.00 / mixed_ref=1 / me_range=24 / chroma_me=1 / trellis=2 / 8x8dct=1 / cqm=0 / deadzone=21,11 / fast_pskip=1 / chroma_qp_offset=-2 / threads=12 / lookahead_threads=2 / sliced_threads=0 / nr=0 / decimate=1 / interlaced=0 / bluray_compat=0 / constrained_intra=0 / bframes=8 / b_pyramid=2 / b_adapt=2 / b_bias=0 / direct=3 / weightb=1 / open_gop=0 / weightp=2 / keyint=250 / keyint_min=24 / scenecut=40 / intra_refresh=0 / rc_lookahead=60 / rc=2pass / mbtree=1 / bitrate=15000 / ratetol=1.0 / qcomp=0.60 / qpmin=0 / qpmax=69 / qpstep=4 / cplxblur=20.0 / qblur=0.5 / ip_ratio=1.40 / aq=1:0.75
Language : English
Default : Yes
Forced : No
_STATISTICS_WRITING_APP : mkvmerge v7.4.0 ('Circles') 64bit built on Dec 12 2014 12:19:56
_STATISTICS_WRITING_DATE_UTC : 2015-05-15 08:11:05
_STATISTICS_TAGS : BPS DURATION NUMBER_OF_FRAMES NUMBER_OF_BYTES
DURATION : 01:36:17.542000000
NUMBER_OF_FRAMES : 138661
NUMBER_OF_BYTES : 10827987510
Audio #1
ID : 2
Format : AC-3
Format/Info : Audio Coding 3
Mode extension : CM (complete main)
Format settings, Endianness : Big
Codec ID : A_AC3
Duration : 1h 36mn
Bit rate mode : Constant
Bit rate : 256 Kbps
Channel(s) : 2 channels
Channel positions : Front: L R
Sampling rate : 48.0 KHz
Bit depth : 16 bits
Compression mode : Lossy
Stream size : 176 MiB (2%)
Title : VO (Виктор Береговых)
Language : Russian
Default : Yes
Forced : No
Audio #2
ID : 3
Format : DTS
Format/Info : Digital Theater Systems
Mode : 16
Format settings, Endianness : Big
Codec ID : A_DTS
Duration : 1h 36mn
Bit rate mode : Constant
Bit rate : 1 509 Kbps
Channel(s) : 6 channels
Channel positions : Front: L C R, Side: L R, LFE
Sampling rate : 48.0 KHz
Bit depth : 16 bits
Compression mode : Lossy
Stream size : 1.02 GiB (9%)
Language : Norwegian
Default : No
Forced : No
Text
ID : 4
Format : UTF-8
Codec ID : S_TEXT/UTF8
Codec ID/Info : UTF-8 Plain Text
Language : Norwegian
Default : No
Forced : No
Menu
00:00:00.000 : en:1
00:13:11.125 : en:2
00:26:21.250 : en:3
00:38:05.458 : en:4
00:50:24.625 : en:5
01:04:10.208 : en:6
01:16:46.000 : en:7
01:31:26.375 : en:8
Скриншоты
Скачать

Скачать торрент!

Как скачивать? · Что такое торрент? · Рейтинг и ограничения

Сайт не распространяет и не хранит электронные версии произведений, а лишь предоставляет доступ к создаваемому пользователями каталогу ссылок на торрент-файлы, которые содержат только списки хеш-сумм

[Профиль] [ЛС]
Показать сообщения:    
Ответить на тему

Текущее время: Сегодня 02:21

Часовой пояс: GMT + 4



Вы не можете начинать темы
Вы не можете отвечать на сообщения
Вы не можете редактировать свои сообщения
Вы не можете удалять свои сообщения
Вы не можете голосовать в опросах
Вы не можете прикреплять файлы к сообщениям
Вы не можете скачивать файлы