Каблуи / Kabluey (Скотт Прендергаст / Scott Prendergast) [2007, США, комедия, WEB-DL 720p] Sub Rus, Eng + Original Eng

Ответить на тему
 
Автор Сообщение

user ®

Стаж: 7 лет 7 месяцев

Сообщений: 20008

Пост Пост: #1 от 16-Май-2015 10:24

[Цитировать]

Каблуи / Kabluey
Страна: США
Студия: Whitewater Films
Жанр: комедия
Год выпуска: 2007
Продолжительность: 01:26:28
Перевод: Субтитры [url=http://***/forum/viewtopic.php?t=2108969/]отсюда[/url]
Cубтитры: русские, английские
Оригинальная аудиодорожка: английский
Режиссер: Скотт Прендергаст / Scott Prendergast
В ролях: Лиза Кудроу, Скотт Прендергаст, Кристин Тейлор, Кончата Феррелл, Джеффри Дин Морган, Крис Парнелл, Тери Гарр, Анджела Сарафян, Патриция Бакли, Камерон Уоффорд
Описание: Салман приезжает к невесте своего брата для того чтобы помочь, до тех пор пока его брат находится в Ираке. Теперь для пропитания семьи брата он должен устроится на жуткую работу в одну из больших корпоративных фирм.

Sample
Тип релиза: WEB-DL 720p
Контейнер: MKV
Видео: MPEG4 AVC Video, H264, 16:9, 1280x718, 23.976 fps, 4006 kbps
Аудио: English (AC3, 6 ch, 384 kbps, 16 bits, 48.0 KHz) - оригинал
Формат субтитров: softsub (SRT)

MediaInfo
General
Unique ID : 214097742457602511073438340965436828992 (0xA111B9AEBBEC0180A1A222A17E412D40)
Complete name : K:\Kabluey 2007 WEB-DL 720p.mkv
Format : Matroska
Format version : Version 4 / Version 2
File size : 2.71 GiB
Duration : 1h 26mn
Overall bit rate : 4 479 Kbps
Encoded date : UTC 2015-05-15 15:55:35
Writing application : mkvmerge v6.1.0 ('Old Devil') built on Mar 2 2013 14:32:37
Writing library : libebml v1.3.0 + libmatroska v1.4.0
Video
ID : 1
Format : AVC
Format/Info : Advanced Video Codec
Format profile : High@L3.1
Format settings, CABAC : No
Format settings, ReFrames : 2 frames
Codec ID : V_MPEG4/ISO/AVC
Duration : 1h 26mn
Bit rate : 4 006 Kbps
Width : 1 280 pixels
Height : 718 pixels
Display aspect ratio : 16:9
Frame rate mode : Constant
Frame rate : 23.976 fps
Color space : YUV
Chroma subsampling : 4:2:0
Bit depth : 8 bits
Scan type : Progressive
Bits/(Pixel*Frame) : 0.182
Stream size : 2.42 GiB (89%)
Language : English
Default : Yes
Forced : No
Color primaries : BT.709
Transfer characteristics : BT.709
Matrix coefficients : BT.709
Audio
ID : 2
Format : AC-3
Format/Info : Audio Coding 3
Mode extension : CM (complete main)
Format settings, Endianness : Big
Codec ID : A_AC3
Duration : 1h 26mn
Bit rate mode : Constant
Bit rate : 384 Kbps
Channel count : 6 channels
Channel positions : Front: L C R, Side: L R, LFE
Sampling rate : 48.0 KHz
Bit depth : 16 bits
Compression mode : Lossy
Stream size : 237 MiB (9%)
Language : English
Default : Yes
Forced : Yes
Text #1
ID : 3
Format : UTF-8
Codec ID : S_TEXT/UTF8
Codec ID/Info : UTF-8 Plain Text
Language : Russian
Default : Yes
Forced : Yes
Text #2
ID : 4
Format : UTF-8
Codec ID : S_TEXT/UTF8
Codec ID/Info : UTF-8 Plain Text
Language : English
Default : No
Forced : No
Menu
00:00:00.000 : en:Chapter 1
00:07:57.000 : en:Chapter 2
00:14:08.000 : en:Chapter 3
00:22:13.000 : en:Chapter 4
00:26:31.000 : en:Chapter 5
00:40:04.000 : en:Chapter 6
00:47:29.000 : en:Chapter 7
00:54:25.000 : en:Chapter 8
00:58:24.000 : en:Chapter 9
01:10:19.000 : en:Chapter 10
01:14:40.000 : en:Chapter 11
01:19:06.000 : en:Chapter 12
Скриншоты
Скачать

Скачать торрент!

Как скачивать? · Что такое торрент? · Рейтинг и ограничения

Сайт не распространяет и не хранит электронные версии произведений, а лишь предоставляет доступ к создаваемому пользователями каталогу ссылок на торрент-файлы, которые содержат только списки хеш-сумм

[Профиль] [ЛС]
Показать сообщения:    
Ответить на тему

Текущее время: Сегодня 01:46

Часовой пояс: GMT + 4



Вы не можете начинать темы
Вы не можете отвечать на сообщения
Вы не можете редактировать свои сообщения
Вы не можете удалять свои сообщения
Вы не можете голосовать в опросах
Вы не можете прикреплять файлы к сообщениям
Вы не можете скачивать файлы