Территория (Александр Мельник) [2015, драма, приключения, WEB-DL 720p, AVC]

Ответить на тему
 
Автор Сообщение

user ®

Стаж: 7 лет 7 месяцев

Сообщений: 20008

Пост Пост: #1 от 16-Май-2015 10:24

[Цитировать]

Территория
Жанр: драма, приключения
Год выпуска: 2015
Продолжительность: 02:31:52
Режиссёр: Александр Мельник
В ролях: Константин Лавроненко, Григорий Добрыгин, Егор Бероев, Ксения Кутепова, Евгений Цыганов, Владислав Абашин, Герасим Васильев, Константин Шелестун, Константин Балакирев, Олег Шапков
Описание: Территория — это место, где люди проверяются на прочность. Необозримые пространства, где тундра встречается с ледяными торосами Ледовитого океана. Суровый русский север, которому способны бросить вызов немногие. Геолог Илья Чинков, одержимый идеей найти легендарное золото Территории, собирает команду смельчаков, готовых поставить на карту все, включая собственные жизни.
Сэмпл: http://multi-up.com/1048765
Качество видео: WEB-DL 720p
Формат видео: MKV
Видео: 960x532 (2.40:1), 25 fps, MPEG-4 ~3926 kbps avg, 0.307 bit/pixel
Аудио: 48.0 kHz, AC3 Dolby Digital, 6 ch, ~384 kbps
MediaInfo
General
Unique ID : 210194339675210678104878203892738892820 (0x9E21F51118A7EFD7B969363DC1712414)
Complete name : F:\Download\Terr1r0ri9.mkv
Format : Matroska
Format version : Version 4 / Version 2
File size : 4.66 GiB
Duration : 2h 31mn
Overall bit rate : 4 397 Kbps
Encoded date : UTC 2015-05-14 18:13:09
Writing application : mkvmerge v6.9.1 ('Blue Panther') 64bit built on Apr 18 2014 18:23:38
Writing library : libebml v1.3.0 + libmatroska v1.4.1
Video
ID : 1
Format : AVC
Format/Info : Advanced Video Codec
Format profile : Main@L3.1
Format settings, CABAC : No
Format settings, ReFrames : 2 frames
Codec ID : V_MPEG4/ISO/AVC
Duration : 2h 31mn
Bit rate : 3 926 Kbps
Width : 960 pixels
Height : 532 pixels
Display aspect ratio : 2.40:1
Frame rate mode : Constant
Frame rate : 25.000 fps
Color space : YUV
Chroma subsampling : 4:2:0
Bit depth : 8 bits
Scan type : Progressive
Bits/(Pixel*Frame) : 0.307
Stream size : 4.16 GiB (89%)
Language : English
Default : Yes
Forced : No
Color range : Limited
Color primaries : BT.709
Transfer characteristics : BT.709
Matrix coefficients : BT.709
Audio
ID : 2
Format : AC-3
Format/Info : Audio Coding 3
Mode extension : CM (complete main)
Format settings, Endianness : Big
Codec ID : A_AC3
Duration : 2h 31mn
Bit rate mode : Constant
Bit rate : 384 Kbps
Channel(s) : 6 channels
Channel positions : Front: L C R, Side: L R, LFE
Sampling rate : 48.0 KHz
Compression mode : Lossy
Stream size : 417 MiB (9%)
Language : Russian
Default : Yes
Forced : No
Menu
00:00:00.000 : en:Глава 1
00:04:33.000 : en:Глава 2
00:10:45.000 : en:Глава 3
00:18:03.000 : en:Глава 4
00:22:27.000 : en:Глава 5
00:27:01.000 : en:Глава 6
00:32:39.000 : en:Глава 7
00:39:20.000 : en:Глава 8
00:45:28.000 : en:Глава 9
00:51:28.000 : en:Глава 10
00:55:35.000 : en:Глава 11
01:01:19.000 : en:Глава 12
01:06:59.000 : en:Глава 13
01:15:13.000 : en:Глава 14
01:20:38.000 : en:Глава 15
01:25:15.000 : en:Глава 16
01:33:46.000 : en:Глава 17
01:37:34.000 : en:Глава 18
01:42:21.000 : en:Глава 19
01:47:36.000 : en:Глава 20
01:50:58.000 : en:Глава 21
01:55:29.000 : en:Глава 22
02:01:33.000 : en:Глава 23
02:09:22.000 : en:Глава 24
02:14:02.000 : en:Глава 25
02:19:15.000 : en:Глава 26
02:23:30.000 : en:Глава 27
Скриншоты
Скачать

Скачать торрент!

Как скачивать? · Что такое торрент? · Рейтинг и ограничения

Сайт не распространяет и не хранит электронные версии произведений, а лишь предоставляет доступ к создаваемому пользователями каталогу ссылок на торрент-файлы, которые содержат только списки хеш-сумм

[Профиль] [ЛС]
Показать сообщения:    
Ответить на тему

Текущее время: Сегодня 20:36

Часовой пояс: GMT + 4



Вы не можете начинать темы
Вы не можете отвечать на сообщения
Вы не можете редактировать свои сообщения
Вы не можете удалять свои сообщения
Вы не можете голосовать в опросах
Вы не можете прикреплять файлы к сообщениям
Вы не можете скачивать файлы