Газета / The Paper (Рон Ховард / Ron Howard) [1994, США, драма, комедия, HDTVRip 720p] MVO + DVO + Original Eng + Sub Eng

Ответить на тему
 
Автор Сообщение

user ®

Стаж: 7 лет 7 месяцев

Сообщений: 20008

Пост Пост: #1 от 15-Май-2015 12:45

[Цитировать]

Газета / The Paper
Страна: США
Студия: Universal Pictures, Imagine Entertainment
Жанр: Драма, Комедия
Год выпуска: 1994
Продолжительность: 01:51:23
Перевод 1: Профессиональный (многоголосый закадровый) - R5
Перевод 2: Профессиональный (двухголосый закадровый) - SDI Media
Cубтитры: английские
Оригинальная аудиодорожка: английский
Режиссер: Рон Ховард / Ron Howard
В ролях: Майкл Китон, Роберт Дювалл, Гленн Клоуз, Мариса Томей, Рэнди Куэйд, Джейсон Робардс, Джейсон Александер, Сполдинг Грэй, Кэтрин О’Хара, Линн Тигпен (Michael Keaton, Robert Duvall, Glenn Close, Marisa Tomei, Randy Quaid, Jason Robards, Jason Alexander, Spalding Gray, Catherine O'Hara, Lynne Thigpen)
Описание: Редактор газеты "Нью-Йорк Сан" Хенри Хэкетт (Майкл Китон) должен за несколько часов (нам показывают один рабочий день газеты) собрать точные материалы об убийстве и остановить главного редактора Алисию Кларк (Гленн Клоуз), собирающуюся напечатать на первой полосе сенсационную статью, которая обвинила бы в этом злодеянии двух невиновных молодых ребят.
Великолепная драма, сделанная с хорошим юмором, не позволяющим картине скатиться в мелодраму.
Доп. информация: Автор рипа - AmPirCo. Добавлены две русские дорожки. Первая взята с DVD R5, вторая с переводом SDI Media взята из [url=http://***/forum/viewtopic.php?t=4801107]раздачи edich2[/url]. Большое спасибо предоставившим материалы!
Сэмпл
Тип релиза: HDTVRip 720p
Контейнер: MKV
Видео: 1280x694p (1,85:1), 23,976 fps, x264, 6844 kbps
Аудио 1: Russian - R5 (Dolby AC3, 2 ch) 192 Kbps / 48 000 Hz
Аудио 2: Russian - SDI Media (Dolby AC3, 2 ch) 192 Kbps / 48 000 Hz
Аудио 3: English (Dolby AC3, 6 ch) 384 Kbps / 48 000 Hz
Субтитры: English
MediaInfo
Уникальный идентификатор : 222440682032973926010559317120538064845 (0xA758845C958CA1258887F29D6C1F37CD)
Полное имя : The.Paper.(1994).HDTVRip.720p.x264.AC3.RUS.ENG.Sub.ENG.mkv
Формат : Matroska
Версия формата : Version 4 / Version 2
Размер файла : 5,92 Гбайт
Продолжительность : 1 ч. 51 м.
Общий поток : 7613 Кбит/сек
Название фильма : The Paper (1994) HDTVRip 720p
Дата кодирования : UTC 2015-05-13 17:05:57
Программа кодирования : mkvmerge v7.9.0 ('Birds') 32bit
Библиотека кодирования : libebml v1.3.1 + libmatroska v1.4.2
DURATION : 01:46:09.698000000
NUMBER_OF_FRAMES : 1608
NUMBER_OF_BYTES : 64076
_STATISTICS_WRITING_APP : mkvmerge v7.9.0 ('Birds') 32bit
_STATISTICS_WRITING_DATE_UTC : 2015-05-13 17:05:57
_STATISTICS_TAGS : BPS DURATION NUMBER_OF_FRAMES NUMBER_OF_BYTES
Видео
Идентификатор : 1
Формат : AVC
Формат/Информация : Advanced Video Codec
Профиль формата : High@L4.1
Параметр CABAC формата : Да
Параметр ReFrames формата : 9 кадров
Идентификатор кодека : V_MPEG4/ISO/AVC
Продолжительность : 1 ч. 51 м.
Битрейт : 6844 Кбит/сек
Ширина : 1280 пикселей
Высота : 694 пикселя
Соотношение сторон : 1,85:1
Режим частоты кадров : Постоянный
Частота кадров : 23,976 кадра/сек
Цветовое пространство : YUV
Субдискретизация насыщенности : 4:2:0
Битовая глубина : 8 бит
Тип развёртки : Прогрессивная
Бит/(Пиксели*Кадры) : 0.321
Размер потока : 5,21 Гбайт (88%)
Библиотека кодирования : x264 core 146 r2538 121396c
Настройки программы : cabac=1 / ref=9 / deblock=1:-2:-2 / analyse=0x3:0x113 / me=umh / subme=9 / psy=1 / psy_rd=1.00:0.00 / mixed_ref=1 / me_range=32 / chroma_me=1 / trellis=2 / 8x8dct=1 / cqm=0 / deadzone=21,11 / fast_pskip=0 / chroma_qp_offset=-2 / threads=6 / lookahead_threads=1 / sliced_threads=0 / nr=0 / decimate=1 / interlaced=0 / bluray_compat=0 / constrained_intra=0 / bframes=6 / b_pyramid=2 / b_adapt=2 / b_bias=0 / direct=3 / weightb=1 / open_gop=0 / weightp=2 / keyint=240 / keyint_min=23 / scenecut=40 / intra_refresh=0 / rc_lookahead=50 / rc=2pass / mbtree=0 / bitrate=6844 / ratetol=1.0 / qcomp=0.60 / qpmin=10 / qpmax=51 / qpstep=4 / cplxblur=20.0 / qblur=0.5 / vbv_maxrate=62500 / vbv_bufsize=78125 / nal_hrd=none / filler=0 / ip_ratio=1.40 / pb_ratio=1.30 / aq=1:1.00
Язык : English
Default : Да
Forced : Нет
DURATION : 01:51:22.760000000
NUMBER_OF_FRAMES : 160226
NUMBER_OF_BYTES : 5715442274
_STATISTICS_WRITING_APP : mkvmerge v7.9.0 ('Birds') 32bit
_STATISTICS_WRITING_DATE_UTC : 2015-05-13 17:05:57
_STATISTICS_TAGS : BPS DURATION NUMBER_OF_FRAMES NUMBER_OF_BYTES
Аудио #1
Идентификатор : 2
Формат : AC-3
Формат/Информация : Audio Coding 3
Расширение режима : CM (complete main)
Параметр Endianness формата : Big
Идентификатор кодека : A_AC3
Продолжительность : 1 ч. 51 м.
Вид битрейта : Постоянный
Битрейт : 192 Кбит/сек
Каналы : 2 канала
Расположение каналов : Front: L R
Частота : 48,0 КГц
Битовая глубина : 16 бит
Метод сжатия : С потерями
Размер потока : 153 Мбайт (3%)
Заголовок : R5
Язык : Russian
Default : Да
Forced : Нет
Аудио #2
Идентификатор : 3
Формат : AC-3
Формат/Информация : Audio Coding 3
Расширение режима : CM (complete main)
Параметр Endianness формата : Big
Идентификатор кодека : A_AC3
Продолжительность : 1 ч. 51 м.
Вид битрейта : Постоянный
Битрейт : 192 Кбит/сек
Каналы : 2 канала
Расположение каналов : Front: L R
Частота : 48,0 КГц
Битовая глубина : 16 бит
Метод сжатия : С потерями
Размер потока : 153 Мбайт (3%)
Заголовок : SDI Media
Язык : Russian
Default : Нет
Forced : Нет
Аудио #3
Идентификатор : 4
Формат : AC-3
Формат/Информация : Audio Coding 3
Расширение режима : CM (complete main)
Параметр Endianness формата : Big
Идентификатор кодека : A_AC3
Продолжительность : 1 ч. 51 м.
Вид битрейта : Постоянный
Битрейт : 384 Кбит/сек
Каналы : 6 каналов
Расположение каналов : Front: L C R, Side: L R, LFE
Частота : 48,0 КГц
Битовая глубина : 16 бит
Метод сжатия : С потерями
Размер потока : 306 Мбайт (5%)
Заголовок : Original
Язык : English
Default : Нет
Forced : Нет
Текст
Идентификатор : 5
Формат : UTF-8
Идентификатор кодека : S_TEXT/UTF8
Идентификатор кодека/Информация : UTF-8 Plain Text
Язык : English
Default : Нет
Forced : Нет
Скриншоты
Скачать

Скачать торрент!

Как скачивать? · Что такое торрент? · Рейтинг и ограничения

Сайт не распространяет и не хранит электронные версии произведений, а лишь предоставляет доступ к создаваемому пользователями каталогу ссылок на торрент-файлы, которые содержат только списки хеш-сумм

[Профиль] [ЛС]
Показать сообщения:    
Ответить на тему

Текущее время: Сегодня 17:28

Часовой пояс: GMT + 4



Вы не можете начинать темы
Вы не можете отвечать на сообщения
Вы не можете редактировать свои сообщения
Вы не можете удалять свои сообщения
Вы не можете голосовать в опросах
Вы не можете прикреплять файлы к сообщениям
Вы не можете скачивать файлы