Все болельщицы умрут / All Cheerleaders Die (Лаки МакКи / Lucky McKee, Крис Сивертсон / Chris Sivertson) [2013, США, ужасы, триллер, комедия, BDRip 720p] VO (datynet) + Original (Eng) + Sub (Eng)

Ответить на тему
 
Автор Сообщение

user ®

Стаж: 7 лет 7 месяцев

Сообщений: 20008

Пост Пост: #1 от 15-Май-2015 12:45

[Цитировать]

Все болельщицы умрут / All Cheerleaders Die Страна: США
Жанр: ужасы, триллер, комедия
Год выпуска: 2013
Продолжительность: 01:29:33
Перевод: Одноголосый закадровый Антон Агапов aka datynet
Cубтитры: английские (SDH)
Оригинальная аудиодорожка: английский
Режиссер: Лаки МакКи / Lucky McKee, Крис Сивертсон / Chris Sivertson
В ролях: Кэйтлин Стэйси, Сианоа Смит-МакФи, Брук Батлер, Том Уильямсон, Amanda Grace Cooper, Reanin Johannink, Николас С. Моррисон, Chris Petrovski, Ли Паркер, Джордан Уилсон
Описание:
Девушки из группы футбольных болельщиц погибают не по своей вине. Однако вскоре они мистическим образом воскресают и наводят ужас в школе, сея вокруг себя смерть в отместку за то, как с ними поступили.
- || -Тип релиза: BDRip 720p (рип от TyHD@VietHD)

Контейнер: MKV
Видео: AVC (x264), 1280x534 (2.40:1) at 23,976 fps, 7405 Кbps, 0.452 bpp
Аудио 1: AC3; 192 Kbps; CBR; 2 ch; 48 khz | VO - datynet |
Аудио 2: DTS; 1536 Kbps; CBR; 6 ch; 48 khz | Английский |
Формат субтитров: softsub (SRT)
Скриншоты || x264 Info || MediaInfo || Notes
MediaInfo
General
Unique ID                                : 252087990600702438934232061293040923648 (0xBDA661875EAEED26BE3B6CEC946A7400)
Complete name                            : Все болельщицы умрут.2013.L1.720p.BluRay.x264-VietHD.mkv
Format                                   : Matroska
Format version                           : Version 4 / Version 2
File size                                : 5.81 GiB
Duration                                 : 1h 29mn
Overall bit rate                         : 9 291 Kbps
Movie name                               : All Cheerleaders Die [2013] [720p] VO
Encoded date                             : UTC 2015-05-11 18:53:20
Writing application                      : mkvmerge v7.9.0 ('Birds') 32bit
Writing library                          : libebml v1.3.1 + libmatroska v1.4.2
Video
ID                                       : 1
Format                                   : AVC
Format/Info                              : Advanced Video Codec
Format profile                           : High@L4.1
Format settings, CABAC                   : Yes
Format settings, ReFrames                : 12 frames
Codec ID                                 : V_MPEG4/ISO/AVC
Duration                                 : 1h 29mn
Bit rate                                 : 7 405 Kbps
Width                                    : 1 280 pixels
Height                                   : 534 pixels
Display aspect ratio                     : 2.40:1
Frame rate mode                          : Constant
Frame rate                               : 23.976 fps
Color space                              : YUV
Chroma subsampling                       : 4:2:0
Bit depth                                : 8 bits
Scan type                                : Progressive
Bits/(Pixel*Frame)                       : 0.452
Stream size                              : 4.63 GiB (80%)
Title                                    : profile.php?mode=viewprofile&u=22488948
Writing library                          : x264 core 142 r2431kMod ac76440
Encoding settings                        : cabac=1 / ref=12 / deblock=1:-3:-3 / analyse=0x3:0x133 / me=umh / subme=10 / psy=1 / fade_compensate=0.00 / psy_rd=0.95:0.00 / mixed_ref=1 / me_range=24 / chroma_me=1 / trellis=2 / 8x8dct=1 / cqm=0 / deadzone=21,11 / fast_pskip=0 / chroma_qp_offset=-2 / threads=12 / lookahead_threads=3 / sliced_threads=0 / nr=0 / decimate=0 / interlaced=0 / bluray_compat=0 / constrained_intra=0 / fgo=0 / bframes=13 / b_pyramid=2 / b_adapt=2 / b_bias=0 / direct=3 / weightb=1 / open_gop=0 / weightp=2 / keyint=250 / keyint_min=23 / scenecut=40 / intra_refresh=0 / rc=crf / mbtree=0 / crf=16.2000 / qcomp=0.75 / qpmin=0 / qpmax=69 / qpstep=4 / ip_ratio=1.30 / pb_ratio=1.20 / aq=1:0.90
Language                                 : English
Default                                  : Yes
Forced                                   : No
Audio #1
ID                                       : 2
Format                                   : AC-3
Format/Info                              : Audio Coding 3
Mode extension                           : CM (complete main)
Format settings, Endianness              : Big
Codec ID                                 : A_AC3
Duration                                 : 1h 29mn
Bit rate mode                            : Constant
Bit rate                                 : 192 Kbps
Channel(s)                               : 2 channels
Channel positions                        : Front: L R
Sampling rate                            : 48.0 KHz
Bit depth                                : 16 bits
Compression mode                         : Lossy
Stream size                              : 123 MiB (2%)
Title                                    : VO [datynet]
Language                                 : Russian
Default                                  : Yes
Forced                                   : No
Audio #2
ID                                       : 3
Format                                   : DTS
Format/Info                              : Digital Theater Systems
Mode                                     : 16
Format settings, Endianness              : Big
Codec ID                                 : A_DTS
Duration                                 : 1h 29mn
Bit rate mode                            : Constant
Bit rate                                 : 1 509 Kbps
Channel(s)                               : 6 channels
Channel positions                        : Front: L C R, Side: L R, LFE
Sampling rate                            : 48.0 KHz
Bit depth                                : 24 bits
Compression mode                         : Lossy
Stream size                              : 967 MiB (16%)
Language                                 : English
Default                                  : No
Forced                                   : No
Text
ID                                       : 4
Format                                   : UTF-8
Codec ID                                 : S_TEXT/UTF8
Codec ID/Info                            : UTF-8 Plain Text
Title                                    : SDH
Language                                 : English
Default                                  : No
Forced                                   : No
Menu
00:00:00.000                             : en:00:00:00.000
00:03:29.960                             : en:00:03:29.960
00:11:24.976                             : en:00:11:24.976
00:20:01.992                             : en:00:20:01.992
00:38:11.623                             : en:00:38:11.623
00:47:59.543                             : en:00:47:59.543
01:02:05.972                             : en:01:02:05.972
01:24:02.955                             : en:01:24:02.955
x264 Infox264 [info]: frame I:938 Avg QP:13.59 size:111183
x264 [info]: frame P:30039 Avg QP:14.40 size: 58921
x264 [info]: frame B:97851 Avg QP:15.83 size: 32929
x264 [info]: consecutive B-frames: 2.6% 4.5% 10.8% 18.7% 17.5% 39.5% 3.5% 0.9% 0.6% 0.4% 0.4% 0.2% 0.1% 0.3% Цитата: Аудио дорожка №1 взята с этой [url=http://***/forum/viewtopic.php?t=4784731]раздачи[/url], thx: Floreliya
Скачать

Скачать торрент!

Как скачивать? · Что такое торрент? · Рейтинг и ограничения

Сайт не распространяет и не хранит электронные версии произведений, а лишь предоставляет доступ к создаваемому пользователями каталогу ссылок на торрент-файлы, которые содержат только списки хеш-сумм

[Профиль] [ЛС]
Показать сообщения:    
Ответить на тему

Текущее время: Сегодня 06:25

Часовой пояс: GMT + 4



Вы не можете начинать темы
Вы не можете отвечать на сообщения
Вы не можете редактировать свои сообщения
Вы не можете удалять свои сообщения
Вы не можете голосовать в опросах
Вы не можете прикреплять файлы к сообщениям
Вы не можете скачивать файлы