Кевин и Перри уделывают всех / Kevin & Perry Go Large (Эд Бай / Ed Bye) [2000, Великобритания, комедия, WEB-DL 720p] MVO + Original Eng

Ответить на тему
 
Автор Сообщение

user ®

Стаж: 7 лет 7 месяцев

Сообщений: 20008

Пост Пост: #1 от 14-Май-2015 18:12

[Цитировать]

Кевин и Перри уделывают всех / Kevin & Perry Go Large- Страна: Великобритания
Жанр: Комедия
Год выпуска: 2000
Продолжительность: 01:22:56
Перевод: Профессиональный (многоголосый закадровый)
Cубтитры: нет
Оригинальная аудиодорожка: английский-Режиссер: Эд Бай / Ed Bye
В ролях: Гарри Энфилд /Harry Enfield/, Кати Берк /Kathy Burke/, Рис Айфанс /Rhys Ifans/, Лаура Фрейзер /Laura Fraser/, Джеймс Флит /James Fleet/, Луиза Рикс /Louisa Rix/-Описание: Наступили летние каникулы, а Кевин и его дружок Перри все еще не сделали «это». Если в ближайшее время им не удастся снять пару девчонок, они просто лопнут.
А пока что у них, фанатов танцевальной музыки, остается единственная радость в жизни — сидеть в спальне Кевина и делать свои гениальные миксы. Но есть на Земле место, где обитают крутые ди-джеи и безотказные девушки.
Это остров Ибица — столица мировой танцевальной моды. «Раскрутив» родителей на билеты, друзья приступают к делу и тут же добиваются успеха.
Им удается «охмурить» двух шикарных девчонок, а настоящая суперзвезда — знаменитый ди-джей «Лупоглазый» Пол обещает взять парней к себе в помощники (если сначала они вычистят его туалет).
Похоже, что лето будет приятным во всех отношениях.-
-Качество видео: WEB-DL 720p (iTunes UK)
Формат видео: MKV
Видео: AVC, 1280x716, 4140 Kbps, 24.000 fps, 0.188 bpf
Аудио 1: AC3, 384 Kbps, 48000 Hz, 5.1 channels - MVO
Аудио 2: AC3, 384 Kbps, 48000 Hz, 5.1 channels - ENG-Скриншоты Резервные скриншоты
-
MediaInfo
Format : Matroska
Format version : Version 4 / Version 2
File size : 2.90 GiB
Duration : 1h 22mn
Overall bit rate : 5 008 Kbps
Movie name : Кевин и Перри уделывают всех / Kevin & Perry Go Large (2000) WEB-DL 720p [RG Torrents.ru]
Encoded date : UTC 2015-05-13 11:20:27
Writing application : mkvmerge v7.8.0 ('River Man') 32bit built on Mar 27 2015 16:18:02
Writing library : libebml v1.3.1 + libmatroska v1.4.2
Cover : Yes
Video
ID : 1
Format : AVC
Format/Info : Advanced Video Codec
Format profile : High@L3.1
Format settings, CABAC : No
Format settings, ReFrames : 2 frames
Codec ID : V_MPEG4/ISO/AVC
Duration : 1h 22mn
Bit rate : 4 140 Kbps
Width : 1 280 pixels
Height : 716 pixels
Display aspect ratio : 16:9
Frame rate mode : Constant
Frame rate : 24.000 fps
Color space : YUV
Chroma subsampling : 4:2:0
Bit depth : 8 bits
Scan type : Progressive
Bits/(Pixel*Frame) : 0.188
Stream size : 2.40 GiB (83%)
Title : iTunes (UK)
Language : English
Default : Yes
Forced : No
Color primaries : BT.709
Transfer characteristics : BT.709
Matrix coefficients : BT.709
Audio #1
ID : 2
Format : AC-3
Format/Info : Audio Coding 3
Mode extension : CM (complete main)
Format settings, Endianness : Big
Codec ID : A_AC3
Duration : 1h 22mn
Bit rate mode : Constant
Bit rate : 384 Kbps
Channel(s) : 6 channels
Channel positions : Front: L C R, Side: L R, LFE
Sampling rate : 48.0 KHz
Bit depth : 16 bits
Compression mode : Lossy
Stream size : 228 MiB (8%)
Language : Russian
Default : Yes
Forced : No
Audio #2
ID : 3
Format : AC-3
Format/Info : Audio Coding 3
Mode extension : CM (complete main)
Format settings, Endianness : Big
Codec ID : A_AC3
Duration : 1h 22mn
Bit rate mode : Constant
Bit rate : 384 Kbps
Channel(s) : 6 channels
Channel positions : Front: L C R, Side: L R, LFE
Sampling rate : 48.0 KHz
Bit depth : 16 bits
Compression mode : Lossy
Stream size : 228 MiB (8%)
Language : English
Default : No
Forced : No
Скачать

Скачать торрент!

Как скачивать? · Что такое торрент? · Рейтинг и ограничения

Сайт не распространяет и не хранит электронные версии произведений, а лишь предоставляет доступ к создаваемому пользователями каталогу ссылок на торрент-файлы, которые содержат только списки хеш-сумм

[Профиль] [ЛС]
Показать сообщения:    
Ответить на тему

Текущее время: Сегодня 18:36

Часовой пояс: GMT + 4



Вы не можете начинать темы
Вы не можете отвечать на сообщения
Вы не можете редактировать свои сообщения
Вы не можете удалять свои сообщения
Вы не можете голосовать в опросах
Вы не можете прикреплять файлы к сообщениям
Вы не можете скачивать файлы