Робот по имени Чаппи / CHAPPiE (Нил Бломкамп / Neill Blomkamp) [2015, США, Мексика, ЮАР, фантастика, боевик, триллер, WEB-DLRip] Dub (Rus, Ukr) + Original Eng + Subs (Rus, Ukr, Eng)

Ответить на тему
 
Автор Сообщение

user ®

Стаж: 7 лет 7 месяцев

Сообщений: 20008

Пост Пост: #1 от 14-Май-2015 15:06

[Цитировать]

Робот по имени Чаппи / CHAPPiE
Страна: США, Мексика, ЮАР
Жанр: фантастика, боевик, триллер
Год выпуска: 2015
Продолжительность: 02:00:21
Перевод 1: Профессиональный (полное дублирование) iTunes
Перевод 2: Профессиональный (полное дублирование) Украинский
Субтитры: русские (на надписи), русские (полные), украинские (полные), английские (полные)
Оригинальная аудиодорожка: английский, африкаанс
Режиссер: Нил Бломкамп / Neill Blomkamp
В ролях: Шарлто Копли, Дев Патель, Ниндзя, Йоланди Фиссер, Хосе Пабло Кантилльо, Хью Джекман, Сигурни Уивер, Брэндон Оре, Джонни Селема, Андерсон Купер, Морис Карпеде, Джейсон Коуп, Кевин Отто, Крис Шилдс, Билл Мэрчент, Роберт Хоббс, Марк К. Куслу, Шерлдон Марема, Шахид Хаджи, Дэвид Давадосс и др.
Описание: Чаппи - вундеркинд. Как и любой другой ребенок, он попадает под влияние своего окружения, и только его сердце и душа помогут ему найти свой путь. Но есть одна вещь, которая делает Чаппи непохожим на всех остальных: он - первый робот, способный чувствовать и думать.
Sample

Работа с видео: whip93
Качество видео: WEB-DLRip (исх. Chappie.2015.720p.WEB-DL.Rus.Ukr.Eng.HDCLUB)
Формат видео: AVI
Видео: Xvid 720x304 23.976fps 1342kbps
Аудио 1: Dolby AC3 48kHz 6ch 384kbps (RU)
Аудио 2: Dolby AC3 48kHz 2ch 192kbps (UA) (отдельно)
Аудио 3: Dolby AC3 48kHz 2ch 192kbps (EN) (отдельно)
Формат субтитров: softsub (SRT)
Доп. информация
Спасибо ЛП за украинскую и оригинальную аудиодорожки.
MediaInfo
General
Complete name : G:\1\Chappie.2015.WEB-DLRip.RU.whip93.avi
Format : AVI
Format/Info : Audio Video Interleave
File size : 1.46 GiB
Duration : 2h 0mn
Overall bit rate : 1 735 Kbps
Writing application : VirtualDubMod 1.5.10.3 | www.virtualdub-fr.org || (build 2550/release)
Writing library : VirtualDubMod build 2550/release
Video
ID : 0
Format : MPEG-4 Visual
Format profile : Advanced Simple@L5
Format settings, BVOP : 1
Format settings, QPel : No
Format settings, GMC : No warppoints
Format settings, Matrix : Default (MPEG)
Codec ID : XVID
Codec ID/Hint : XviD
Duration : 2h 0mn
Bit rate : 1 342 Kbps
Width : 720 pixels
Height : 304 pixels
Display aspect ratio : 2.35:1
Frame rate : 23.976 fps
Color space : YUV
Chroma subsampling : 4:2:0
Bit depth : 8 bits
Scan type : Progressive
Compression mode : Lossy
Bits/(Pixel*Frame) : 0.256
Stream size : 1.13 GiB (77%)
Writing library : XviD 65
Audio
ID : 1
Format : AC-3
Format/Info : Audio Coding 3
Mode extension : CM (complete main)
Format settings, Endianness : Big
Codec ID : 2000
Duration : 2h 0mn
Bit rate mode : Constant
Bit rate : 384 Kbps
Channel(s) : 6 channels
Channel positions : Front: L C R, Side: L R, LFE
Sampling rate : 48.0 KHz
Bit depth : 16 bits
Compression mode : Lossy
Stream size : 331 MiB (22%)
Alignment : Split accross interleaves
Interleave, duration : 42 ms (1.00 video frame)
Interleave, preload duration : 500 ms
Скриншоты
Скачать

Скачать торрент!

Как скачивать? · Что такое торрент? · Рейтинг и ограничения

Сайт не распространяет и не хранит электронные версии произведений, а лишь предоставляет доступ к создаваемому пользователями каталогу ссылок на торрент-файлы, которые содержат только списки хеш-сумм

[Профиль] [ЛС]
Показать сообщения:    
Ответить на тему

Текущее время: Сегодня 00:12

Часовой пояс: GMT + 4



Вы не можете начинать темы
Вы не можете отвечать на сообщения
Вы не можете редактировать свои сообщения
Вы не можете удалять свои сообщения
Вы не можете голосовать в опросах
Вы не можете прикреплять файлы к сообщениям
Вы не можете скачивать файлы