Форсаж 7 / Fast & Furious Seven (Джеймс Ван / James Wan) [2015, США, Боевик, Триллер, Криминал, HDTVRip-AVC] Dub (Line) + Original Eng | Rus / Eng subs

Ответить на тему
 
Автор Сообщение

user ®

Стаж: 7 лет 7 месяцев

Сообщений: 20008

Пост Пост: #1 от 14-Май-2015 12:00

[Цитировать]

Форсаж 7 / Furious 7 Страна: США
Жанр: Боевик, Триллер, Криминал
Год выпуска: 2015
Продолжительность: 02:17:13
Перевод: Профессиональный (дублированный) [Line]
Cубтитры: русские [Doctor_Joker], английские (откл.) / никаких не китайских, не корейских сабов НЕТ
Оригинальная аудиодорожка: английский
Режиссер: Джеймс Ван / James Wan
В ролях: Дуэйн Джонсон, Пол Уокер, Вин Дизель, Джейсон Стэтхэм, Мишель Родригес, Лукас Блэк, Джордана Брюстер, Курт Рассел, Лудакрис, Джон Сенатьемпо, Тайрез Гибсон, Анна Колвелл, Джимон Хонсу, Тони Джа и др.
Описание: Они покорили Токио и Рио, Лос-Анджелес и Лондон. Но мир больше не играет по их правилам. Зной арабских пустынь, неприлично высокие небоскребы, миллионы долларов на колесах и очень, очень знаменитый злодей. Скорость не знает границ.
Сэмпл
Качество видео: HDTVRip-AVC
Формат видео: MKV
Видео: AVC, 1152x480 (2,40:1), 29,970 кадров/сек, 1858 Кбит/сек
Аудио: AC3, 48,0 КГц, 2 канала, 128 Кбит/сек [Rus]
Аудио 2: AC3, 44,1 КГц, 2 канала, 192 Кбит/сек [Eng]
MediaInfo
Формат : Matroska
Версия формата : Version 4 / Version 2
Размер файла : 2,08 Гбайт
Продолжительность : 2 ч. 17 м.
Общий поток : 2171 Кбит/сек
Название фильма : Furious 7 (2015) WEB-DLRip-AVC
Дата кодирования : UTC 2015-05-13 18:08:27
Программа кодирования : mkvmerge v7.8.0 ('River Man') 32bit built on Mar 27 2015 16:18:02
Библиотека кодирования : libebml v1.3.1 + libmatroska v1.4.2
DURATION : 02:08:11.705000000
NUMBER_OF_FRAMES : 1432
NUMBER_OF_BYTES : 67923
_STATISTICS_WRITING_APP : mkvmerge v7.8.0 ('River Man') 32bit built on Mar 27 2015 16:18:02
_STATISTICS_WRITING_DATE_UTC : 2015-05-13 18:08:27
_STATISTICS_TAGS : BPS DURATION NUMBER_OF_FRAMES NUMBER_OF_BYTES
Видео
Идентификатор : 1
Формат : AVC
Формат/Информация : Advanced Video Codec
Профиль формата : High@L4.1
Параметр CABAC формата : Да
Параметр ReFrames формата : 16 кадров
Идентификатор кодека : V_MPEG4/ISO/AVC
Продолжительность : 2 ч. 17 м.
Битрейт : 1858 Кбит/сек
Ширина : 1152 пикселя
Высота : 480 пикселей
Соотношение сторон : 2,40:1
Режим частоты кадров : Постоянный
Частота кадров : 29,970 кадров/сек
Цветовое пространство : YUV
Субдискретизация насыщенности : 4:2:0
Битовая глубина : 8 бит
Тип развёртки : Прогрессивная
Бит/(Пиксели*Кадры) : 0.112
Размер потока : 1,73 Гбайт (83%)
Заголовок : Furious 7 (2015) HDTVRip-AVC
Библиотека кодирования : x264 core 146 r2538
Настройки программы : cabac=1 / ref=16 / deblock=1:0:0 / analyse=0x3:0x133 / me=umh / subme=9 / psy=1 / psy_rd=1.00:0.00 / mixed_ref=0 / me_range=24 / chroma_me=0 / trellis=2 / 8x8dct=1 / cqm=0 / deadzone=21,11 / fast_pskip=1 / chroma_qp_offset=-2 / threads=6 / lookahead_threads=1 / sliced_threads=0 / nr=0 / decimate=1 / interlaced=0 / bluray_compat=0 / constrained_intra=0 / bframes=7 / b_pyramid=0 / b_adapt=1 / b_bias=0 / direct=3 / weightb=1 / open_gop=0 / weightp=0 / keyint=299 / keyint_min=29 / scenecut=40 / intra_refresh=0 / rc_lookahead=60 / rc=abr / mbtree=1 / bitrate=1858 / ratetol=1.0 / qcomp=0.60 / qpmin=10 / qpmax=69 / qpstep=4 / vbv_maxrate=50000 / vbv_bufsize=24000 / nal_hrd=none / filler=0 / ip_ratio=1.40 / aq=1:1.00
Default : Да
Forced : Нет
DURATION : 02:17:13.058000000
NUMBER_OF_FRAMES : 246745
NUMBER_OF_BYTES : 1902354554
_STATISTICS_WRITING_APP : mkvmerge v7.8.0 ('River Man') 32bit built on Mar 27 2015 16:18:02
_STATISTICS_WRITING_DATE_UTC : 2015-05-13 18:08:27
_STATISTICS_TAGS : BPS DURATION NUMBER_OF_FRAMES NUMBER_OF_BYTES
Аудио #1
Идентификатор : 2
Формат : AC-3
Формат/Информация : Audio Coding 3
Расширение режима : CM (complete main)
Параметр Endianness формата : Big
Идентификатор кодека : A_AC3
Продолжительность : 2 ч. 17 м.
Вид битрейта : Постоянный
Битрейт : 128 Кбит/сек
Каналы : 2 канала
Расположение каналов : Front: L R
Частота : 48,0 КГц
Битовая глубина : 16 бит
Метод сжатия : С потерями
Размер потока : 126 Мбайт (6%)
Язык : Russian
Default : Нет
Forced : Нет
DURATION : 02:17:12.953000000
NUMBER_OF_FRAMES : 236376
NUMBER_OF_BYTES : 197591040
_STATISTICS_WRITING_APP : mkvmerge v7.8.0 ('River Man') 32bit built on Mar 27 2015 16:18:02
_STATISTICS_WRITING_DATE_UTC : 2015-05-13 18:08:27
_STATISTICS_TAGS : BPS DURATION NUMBER_OF_FRAMES NUMBER_OF_BYTES
Аудио #2
Идентификатор : 3
Формат : AC-3
Формат/Информация : Audio Coding 3
Расширение режима : CM (complete main)
Параметр Endianness формата : Big
Идентификатор кодека : A_AC3
Продолжительность : 2 ч. 17 м.
Вид битрейта : Постоянный
Битрейт : 192 Кбит/сек
Каналы : 2 канала
Расположение каналов : Front: L R
Частота : 44,1 КГц
Битовая глубина : 16 бит
Метод сжатия : С потерями
Размер потока : 188 Мбайт (9%)
Язык : English
Default : Да
Forced : Нет
DURATION : 02:17:12.928000000
NUMBER_OF_FRAMES : 257279
NUMBER_OF_BYTES : 131726848
_STATISTICS_WRITING_APP : mkvmerge v7.8.0 ('River Man') 32bit built on Mar 27 2015 16:18:02
_STATISTICS_WRITING_DATE_UTC : 2015-05-13 18:08:27
_STATISTICS_TAGS : BPS DURATION NUMBER_OF_FRAMES NUMBER_OF_BYTES
Текст #1
Идентификатор : 4
Формат : UTF-8
Идентификатор кодека : S_TEXT/UTF8
Идентификатор кодека/Информация : UTF-8 Plain Text
Язык : Russian
Default : Да
Forced : Нет
DURATION : 02:08:05.805000000
NUMBER_OF_FRAMES : 1430
NUMBER_OF_BYTES : 79859
_STATISTICS_WRITING_APP : mkvmerge v7.8.0 ('River Man') 32bit built on Mar 27 2015 16:18:02
_STATISTICS_WRITING_DATE_UTC : 2015-05-13 18:08:27
_STATISTICS_TAGS : BPS DURATION NUMBER_OF_FRAMES NUMBER_OF_BYTES
Текст #2
Идентификатор : 5
Формат : UTF-8
Идентификатор кодека : S_TEXT/UTF8
Идентификатор кодека/Информация : UTF-8 Plain Text
Язык : English
Default : Нет
Forced : Нет
Скриншот c названием фильма Скриншоты
Скачать

Скачать торрент!

Как скачивать? · Что такое торрент? · Рейтинг и ограничения

Сайт не распространяет и не хранит электронные версии произведений, а лишь предоставляет доступ к создаваемому пользователями каталогу ссылок на торрент-файлы, которые содержат только списки хеш-сумм

[Профиль] [ЛС]
Показать сообщения:    
Ответить на тему

Текущее время: Сегодня 05:59

Часовой пояс: GMT + 4



Вы не можете начинать темы
Вы не можете отвечать на сообщения
Вы не можете редактировать свои сообщения
Вы не можете удалять свои сообщения
Вы не можете голосовать в опросах
Вы не можете прикреплять файлы к сообщениям
Вы не можете скачивать файлы