Песочный человек и похищенный песок сновидений / Das Sandmannchen: Abenteuer im Traumland / (Йеспер Мюллер, Синем Сакаоглу, Гельмут Фишер / Jesper Moller, Sinem Sakaoglu, Helmut Fischer) [2010, Германия, Франция, мультфильм, DUB + orig GER+ sub rus]

Ответить на тему
 
Автор Сообщение

user ®

Стаж: 12 лет

Сообщений: 15145

Пост Пост: #1 от 14-Май-2015 02:39

[Цитировать]

~ Песочный человечек: Приключения в Стране Сновидений /
Песочный человек и похищенный песок сновидений /
Das Sandmannchen: Abenteuer im Traumland ~
- Страна: Германия, Франция
Жанр:кукольная анимация, приключения, семейный
Продолжительность: 01:23:00
Год выпуска: 2010
Перевод: : Профессиональный (дублированный)
Оригинальная аудиодорожка: немецкий
Субтитры: немецкие, русские [url=http://***/forum/profile.php?mode=viewprofile&u=34789973]mig_88[/url] aka Мария Игнатова--Режиссёры: Йеспер Мюллер / Jesper Moller, Синем Сакаоглу / Sinem Sakaoglu, Гельмут Фишер / Helmut Fischer--В ролях: Бруно Ренне / Bruno Renne, Илья Рихтер / Ilja Richter, Фолькер Лехтенбринк / Volker Lechtenbrink, Марк Вехе / Marc Wehe, Юлия Рихтер / Julia Richter, Валерия Эйсенбарт / Valeria Eisenbart, Томас Данненберг / Thomas Danneberg, Аарон Денкель / Aaron Denkel, Тасвелл Руланд / Taswell Ruhland, Макс Шутте / Max Schütte-Описание: В волшебной Стране Сновидений живет Песочный человечек, его волшебный песок так нужен, чтобы дети быстро засыпали и видели чудесные сны. Но однажды ночной кошмар Страхосон крадет песок сновидений, и Песочный человечек посылает счетного барашка Вуллингтона в реальный мир, чтобы найти и позвать на помощь бесстрашного капитана Густоборода. К сожалению, Вуллингтон возвращается лишь с внуком капитана, робким шестилетним мальчиком по имени Майло, который только лишь мечтает походить на своего знаменитого дедушку. Тем не менее, Песочный человечек сразу понимает, что именно из таких застенчивых мальчишек и получаются настоящие герои, и вместе они отправляются в путешествие по Стране Сновидений, чтобы победить Страхосна и его банду ночных кошмаров и спасти волшебный песок сновидений. --Доп. информация:
В оригинале у героев другие имена: барашек - Непомук, мальчик - Мико, Страхосон - Хабумар... (для тех, кто смотрит в оригинале с титрами))
КиноПоиск: 6(160) IMDb: 6,4 (70)
СЭМПЛ http://multi-up.com/1048420
Русская дорожка с дубляжом взята из этой раздачи: [url=http://***/forum/viewtopic.php?t=4907226]http://***/forum/viewtopic.php?t=4907226[/url] , (БЛАГОДАРНОСТИ релизеру!),
ОГРОМНОЕ СПАСИБО переводчику субтитров - mig_88 (Мария Игнатова), а также [url=http://***/forum/profile.php?mode=viewprofile&u=5902266]анвад[/url] за работу с рипом и звуковой дорожкой!!!-Качество: HDRip
Формат: AVI
Видео: XVID, 2 320 Kbps, 688 x 368, 1.870, 23.976 fps
Аудио 1: RUS AC3, 2 ch, 192 kbps, 48 kHz | DUB
Аудио 2: GER AC3, 6 ch, 448 kbps, 48 kHz | original (отдельным файлом)-

MediaInfo
General
Complete name : Das Sandmannchen - Abenteuer im Traumland (2010).avi
Format : AVI
Format/Info : Audio Video Interleave
File size : 1.46 GiB
Duration : 1h 23mn
Overall bit rate : 2 521 Kbps
Writing application : VirtualDubMod 1.5.10.3 | www.virtualdub-fr.org || (build 2550/release)
Writing library : VirtualDubMod build 2550/release
Video #0
ID : 0
Format : MPEG-4 Visual
Format profile : Advanced Simple@L5
Format settings, BVOP : 2
Format settings, QPel : No
Format settings, GMC : No warppoints
Format settings, Matrix : Custom
Codec ID : XVID
Codec ID/Hint : XviD
Duration : 1h 23mn
Bit rate : 2 320 Kbps
Width : 688 pixels
Height : 368 pixels
Display aspect ratio : 1.870
Frame rate : 23.976 fps
Color space : YUV
Chroma subsampling : 4:2:0
Bit depth : 8 bits
Scan type : Progressive
Compression mode : Lossy
Bits/(Pixel*Frame) : 0.382
Stream size : 1.34 GiB (92%)
Writing library : XviD 65
Audio #1
ID : 1
Format : AC-3
Format/Info : Audio Coding 3
Mode extension : CM (complete main)
Codec ID : 2000
Duration : 1h 22mn
Bit rate mode : Constant
Bit rate : 192 Kbps
Channel(s) : 2 channels
Channel positions : Front: L R
Sampling rate : 48.0 KHz
Bit depth : 16 bits
Compression mode : Lossy
Stream size : 114 MiB (8%)
Alignment : Split accross interleaves
Interleave, duration : 42 ms (1.00 video frame)
Interleave, preload duration : 500 ms
Скриншоты
Скачать

Скачать торрент! Песочный человек и похищенный песок сновидений / Das Sandmannchen: Abenteuer im Traumland / (Йеспер Мюллер, Синем Сакаоглу, Гельмут Фишер / Jesper Moller, Sinem Sakaoglu, Helmut Fischer) [2010, Германия, Франция, мультфильм, DUB + orig GER+ sub rus]

Как скачивать? · Что такое торрент? · Рейтинг и ограничения

Сайт не распространяет и не хранит электронные версии произведений, а лишь предоставляет доступ к создаваемому пользователями каталогу ссылок на торрент-файлы, которые содержат только списки хеш-сумм

[Профиль] [ЛС]
Показать сообщения:    
Ответить на тему

Текущее время: Сегодня 10:54

Часовой пояс: GMT + 4



Вы не можете начинать темы
Вы не можете отвечать на сообщения
Вы не можете редактировать свои сообщения
Вы не можете удалять свои сообщения
Вы не можете голосовать в опросах
Вы не можете прикреплять файлы к сообщениям
Вы не можете скачивать файлы