Охотники за привидениями 2 / Ghostbusters II (Айвен Райтман / Ivan Reitman) [1989, США, фантастика, боевик, комедия, BDRip 1080p] 2x MVO (Видеосервис, РТР) + 2x DVO (ОРТ, РЕН-ТВ) + 4x AVO + VO (Ирэн) + Ukr + Original Eng + Sub Rus, Eng

Ответить на тему
 
Автор Сообщение

user ®

Стаж: 7 лет 7 месяцев

Сообщений: 20008

Пост Пост: #1 от 13-Май-2015 23:33

[Цитировать]

Охотники за привидениями 2 / Ghostbusters II
Страна: США
Жанр: фантастика, боевик, комедия
Год выпуска: 1989
Продолжительность: 01:48:19
Перевод 1: Профессиональный (многоголосый закадровый) Видеосервис
Перевод 2: Авторский (одноголосый закадровый) Юрий Живов
Перевод 3: Авторский (одноголосый закадровый) Василий горчаков
Перевод 4: Авторский (одноголосый закадровый) Григорий либергал
Перевод 5: Авторский (одноголосый закадровый) Леонид Володарский
Перевод 6: Профессиональный (двухголосый, закадровый) ОРТ
Перевод 7: Профессиональный (двухголосый, закадровый) РЕН-ТВ
Перевод 8: Профессиональный (многоголосый, закадровый) РТР
Перевод 9: Одноголосый закадровый Ирэн
Cубтитры: русские, английские
Оригинальная аудиодорожка: английский
Режиссер: Айвен Райтман / Ivan Reitman
В ролях: Билл Мюррей, Дэн Эйкройд, Сигурни Уивер, Харольд Рэмис, Рик Морэнис, Эрни Хадсон, Энни Поттс, Питер МакНикол, Харрис Юлин, Дэвид Маргулис...
Описание: Через пять лет все забыли о знаменитых охотниках, равно как и о самих привидениях. Но они и не думали исчезать… А это значит, что для отважной четвёрки снова есть работа. Теперь в их распоряжении новое современное оружие, которое поможет им одолеть даже самого страшного монстра. Облако чёрной энергии нависло над городом, а в городской канализации течёт река зловещего розового киселя. Наступает время последней решающей схватки!
Доп. информация: За оцифровку VHS с переводом Володарского спасибо Ansent. За оцифровку VHS с переводом Ирэн спасибо RockNIK. Остальные переводы взяты [url=http://***/forum/viewtopic.php?t=4967194]здесь[/url].
Сэмпл: http://sendfile.su/1114152
Тип релиза: BDRip 1080p [url=http://***/forum/viewtopic.php?t=4815425]Исходник[/url]
Контейнер: MKV
Видео: 1920x800 (2.40:1), 23.976 fps, AVC, ~12.0 Mbps, 0.326 bits/pixel
Аудио 1: Russian, 48.0 KHz, DTS, 6 ch, 1510 Kbps - Видеосервис
Аудио 2: Russian, 48.0 KHz, DTS, 6 ch, 1510 Kbps - Юрий Живов
Аудио 3: Russian, 48.0 KHz, DTS, 6 ch, 1510 Kbps - Василий Горчаков
Аудио 4: Russian, 48.0 KHz, DTS, 6 ch, 1510 Kbps - Григорий Либергал
Аудио 5: Russian, 48.0 KHz, AC3, 2 ch, 192 Kbps - Леонид Володарский
Аудио 6: Russian, 48.0 KHz, AC3, 2 ch, 192 Kbps - ОРТ
Аудио 7: Russian, 48.0 KHz, AC3, 2 ch, 192 Kbps - РЕН-ТВ
Аудио 8: Russian, 48.0 KHz, AC3, 2 ch, 192 Kbps - РТР
Аудио 9: Russian, 48.0 KHz, AC3, 2 ch, 192 Kbps - Ирэн
Аудио 10: Ukrainian, 48.0 KHz, AC3, 2 ch, 192 Kbps - ICTV
Аудио 11: English, 48.0 KHz, DTS, 6 ch, 1510 Kbps
Сравнение
Source | Encode [url=http://***/forum/viewtopic.php?t=4716896]http://***/forum/viewtopic.php?t=4716896[/url]
HDTV | BDRip



MediaInfo
General
Unique ID : 214476576647475701329894237017214965121 (0xA15AAFA671FF57649BF27F691ABE5581)
Complete name : C:\Users\Vladimir\Desktop\Ghostbusters II.mkv
Format : Matroska
Format version : Version 4 / Version 2
File size : 15.7 GiB
Duration : 1h 48mn
Overall bit rate : 20.7 Mbps
Encoded date : UTC 2015-04-23 12:59:30
Writing application : mkvmerge v7.7.0 ('Six Voices') 64bit built on Feb 28 2015 23:39:33
Writing library : libebml v1.3.1 + libmatroska v1.4.2
Attachements : cover
DURATION : 01:48:19.392000000
NUMBER_OF_FRAMES : 203106
NUMBER_OF_BYTES : 155985408
_STATISTICS_WRITING_APP : mkvmerge v7.7.0 ('Six Voices') 64bit built on Feb 28 2015 23:39:33
_STATISTICS_WRITING_DATE_UT : 2015-04-23 12:59:30
_STATISTICS_TAGS : BPS DURATION NUMBER_OF_FRAMES NUMBER_OF_BYTES
Video
ID : 1
Format : AVC
Format/Info : Advanced Video Codec
Format profile : High@L4.0
Format settings, CABAC : Yes
Format settings, ReFrames : 5 frames
Codec ID : V_MPEG4/ISO/AVC
Duration : 1h 48mn
Bit rate : 12.0 Mbps
Width : 1 920 pixels
Height : 800 pixels
Display aspect ratio : 2.40:1
Frame rate mode : Constant
Frame rate : 23.976 fps
Color space : YUV
Chroma subsampling : 4:2:0
Bit depth : 8 bits
Scan type : Progressive
Bits/(Pixel*Frame) : 0.326
Stream size : 8.77 GiB (56%)
Writing library : x264 core 146 r2538 121396c
Encoding settings : cabac=1 / ref=5 / deblock=1:-1:-1 / analyse=0x3:0x133 / me=umh / subme=11 / psy=1 / psy_rd=1.00:0.10 / mixed_ref=1 / me_range=48 / chroma_me=1 / trellis=2 / 8x8dct=1 / cqm=0 / deadzone=21,11 / fast_pskip=0 / chroma_qp_offset=-3 / threads=6 / lookahead_threads=1 / sliced_threads=0 / nr=0 / decimate=1 / interlaced=0 / bluray_compat=0 / constrained_intra=0 / bframes=12 / b_pyramid=2 / b_adapt=2 / b_bias=0 / direct=3 / weightb=1 / open_gop=0 / weightp=2 / keyint=250 / keyint_min=23 / scenecut=40 / intra_refresh=0 / rc_lookahead=50 / rc=2pass / mbtree=1 / bitrate=12000 / ratetol=1.0 / qcomp=0.60 / qpmin=0 / qpmax=69 / qpstep=4 / cplxblur=20.0 / qblur=0.5 / ip_ratio=1.40 / aq=1:1.00
Language : English
Default : Yes
Forced : No
Audio #1
ID : 2
Format : DTS
Format/Info : Digital Theater Systems
Mode : 16
Format settings, Endianness : Big
Codec ID : A_DTS
Duration : 1h 48mn
Bit rate mode : Constant
Bit rate : 1 509 Kbps
Channel(s) : 6 channels
Channel positions : Front: L C R, Side: L R, LFE
Sampling rate : 48.0 KHz
Bit depth : 24 bits
Compression mode : Lossy
Stream size : 1.14 GiB (7%)
Title : Видеосервис
Language : Russian
Default : Yes
Forced : No
Audio #2
ID : 3
Format : DTS
Format/Info : Digital Theater Systems
Mode : 16
Format settings, Endianness : Big
Codec ID : A_DTS
Duration : 1h 48mn
Bit rate mode : Constant
Bit rate : 1 509 Kbps
Channel(s) : 6 channels
Channel positions : Front: L C R, Side: L R, LFE
Sampling rate : 48.0 KHz
Bit depth : 24 bits
Compression mode : Lossy
Stream size : 1.14 GiB (7%)
Title : Юрий Живов
Language : Russian
Default : No
Forced : No
Audio #3
ID : 4
Format : DTS
Format/Info : Digital Theater Systems
Mode : 16
Format settings, Endianness : Big
Codec ID : A_DTS
Duration : 1h 48mn
Bit rate mode : Constant
Bit rate : 1 509 Kbps
Channel(s) : 6 channels
Channel positions : Front: L C R, Side: L R, LFE
Sampling rate : 48.0 KHz
Bit depth : 24 bits
Compression mode : Lossy
Stream size : 1.14 GiB (7%)
Title : Василий Горчаков
Language : Russian
Default : No
Forced : No
Audio #4
ID : 5
Format : DTS
Format/Info : Digital Theater Systems
Mode : 16
Format settings, Endianness : Big
Codec ID : A_DTS
Duration : 1h 48mn
Bit rate mode : Constant
Bit rate : 1 509 Kbps
Channel(s) : 6 channels
Channel positions : Front: L C R, Side: L R, LFE
Sampling rate : 48.0 KHz
Bit depth : 24 bits
Compression mode : Lossy
Stream size : 1.14 GiB (7%)
Title : Григорий Либергал
Language : Russian
Default : No
Forced : No
Audio #5
ID : 6
Format : AC-3
Format/Info : Audio Coding 3
Mode extension : CM (complete main)
Format settings, Endianness : Big
Codec ID : A_AC3
Duration : 1h 48mn
Bit rate mode : Constant
Bit rate : 192 Kbps
Channel(s) : 2 channels
Channel positions : Front: L R
Sampling rate : 48.0 KHz
Bit depth : 16 bits
Compression mode : Lossy
Stream size : 149 MiB (1%)
Title : Леонид Володарский
Language : Russian
Default : No
Forced : No
Audio #6
ID : 7
Format : AC-3
Format/Info : Audio Coding 3
Mode extension : CM (complete main)
Format settings, Endianness : Big
Codec ID : A_AC3
Duration : 1h 48mn
Bit rate mode : Constant
Bit rate : 192 Kbps
Channel(s) : 2 channels
Channel positions : Front: L R
Sampling rate : 48.0 KHz
Bit depth : 16 bits
Compression mode : Lossy
Stream size : 149 MiB (1%)
Title : ОРТ
Language : Russian
Default : No
Forced : No
Audio #7
ID : 8
Format : AC-3
Format/Info : Audio Coding 3
Mode extension : CM (complete main)
Format settings, Endianness : Big
Codec ID : A_AC3
Duration : 1h 48mn
Bit rate mode : Constant
Bit rate : 192 Kbps
Channel(s) : 2 channels
Channel positions : Front: L R
Sampling rate : 48.0 KHz
Bit depth : 16 bits
Compression mode : Lossy
Stream size : 149 MiB (1%)
Title : РЕН-ТВ
Language : Russian
Default : No
Forced : No
Audio #8
ID : 9
Format : AC-3
Format/Info : Audio Coding 3
Mode extension : CM (complete main)
Format settings, Endianness : Big
Codec ID : A_AC3
Duration : 1h 48mn
Bit rate mode : Constant
Bit rate : 192 Kbps
Channel(s) : 2 channels
Channel positions : Front: L R
Sampling rate : 48.0 KHz
Bit depth : 16 bits
Compression mode : Lossy
Stream size : 149 MiB (1%)
Title : РТР
Language : Russian
Default : No
Forced : No
Audio #9
ID : 10
Format : AC-3
Format/Info : Audio Coding 3
Mode extension : CM (complete main)
Format settings, Endianness : Big
Codec ID : A_AC3
Duration : 1h 48mn
Bit rate mode : Constant
Bit rate : 192 Kbps
Channel(s) : 2 channels
Channel positions : Front: L R
Sampling rate : 48.0 KHz
Bit depth : 16 bits
Compression mode : Lossy
Stream size : 149 MiB (1%)
Title : Ирэн
Language : Russian
Default : No
Forced : No
Audio #10
ID : 11
Format : AC-3
Format/Info : Audio Coding 3
Mode extension : CM (complete main)
Format settings, Endianness : Big
Codec ID : A_AC3
Duration : 1h 48mn
Bit rate mode : Constant
Bit rate : 192 Kbps
Channel(s) : 2 channels
Channel positions : Front: L R
Sampling rate : 48.0 KHz
Bit depth : 16 bits
Compression mode : Lossy
Stream size : 149 MiB (1%)
Title : ICTV
Language : Ukrainian
Default : No
Forced : No
Audio #11
ID : 12
Format : DTS
Format/Info : Digital Theater Systems
Mode : 16
Format settings, Endianness : Big
Codec ID : A_DTS
Duration : 1h 48mn
Bit rate mode : Constant
Bit rate : 1 509 Kbps
Channel(s) : 6 channels
Channel positions : Front: L C R, Side: L R, LFE
Sampling rate : 48.0 KHz
Bit depth : 24 bits
Compression mode : Lossy
Stream size : 1.14 GiB (7%)
Language : English
Default : No
Forced : No
Text #1
ID : 13
Format : UTF-8
Codec ID : S_TEXT/UTF8
Codec ID/Info : UTF-8 Plain Text
Language : Russian
Default : No
Forced : No
Text #2
ID : 14
Format : UTF-8
Codec ID : S_TEXT/UTF8
Codec ID/Info : UTF-8 Plain Text
Language : English
Default : No
Forced : No
Menu
00:00:00.000 : :Start
00:05:00.549 : :«World of the Psychic»
00:11:44.162 : :Dr. Janosz Poha
00:18:16.012 : :Ray's Occult Books
00:23:36.498 : :Investigating Oscar
00:32:39.958 : :Late-Night Excavation
00:39:20.817 : :Vigo Commands
00:46:15.147 : :Down the Shaft
00:52:36.487 : :Great Blackout of 1989
00:58:45.981 : :Their Day in Court
01:05:34.055 : :The Scoleri Brothers
01:14:06.776 : :Two in the Box
01:19:22.216 : :Mood Slime
01:27:22.529 : :A Tub Full of Slime
01:33:06.539 : :Peter's Place
01:38:10.635 : :Vigo 101
Скриншоты
Скачать

Скачать торрент!

Как скачивать? · Что такое торрент? · Рейтинг и ограничения

Сайт не распространяет и не хранит электронные версии произведений, а лишь предоставляет доступ к создаваемому пользователями каталогу ссылок на торрент-файлы, которые содержат только списки хеш-сумм

[Профиль] [ЛС]
Показать сообщения:    
Ответить на тему

Текущее время: Сегодня 02:17

Часовой пояс: GMT + 4



Вы не можете начинать темы
Вы не можете отвечать на сообщения
Вы не можете редактировать свои сообщения
Вы не можете удалять свои сообщения
Вы не можете голосовать в опросах
Вы не можете прикреплять файлы к сообщениям
Вы не можете скачивать файлы