Тёмный лес / Villmark (Пол Ойе / Pål Øie) [2003, Норвегия, ужасы, триллер, детектив, приключения, BDRemux 1080p] VO (den904) + Sub Rus, Eng + Original Nor

Ответить на тему
 
Автор Сообщение

user ®

Стаж: 7 лет 7 месяцев

Сообщений: 20008

Пост Пост: #1 от 13-Май-2015 23:33

[Цитировать]

Тёмный лес / Villmark
Страна: Норвегия
Студия: Norsk Filmfond / Spleis A/S
Жанр: ужасы, триллер, детектив, приключения
Год выпуска: 2003
Продолжительность: 01:24:56
Перевод: Одноголосый закадровый den904
Cубтитры: русские, английские
Оригинальная аудиодорожка: норвежский
Режиссер: Пол Ойе / Pål Øie
В ролях: Бьёрн Флоберг, Кристоффер Йонер, Эва Рёзе, Сампда Шарма, Марко Иверсен Каник, Симон Норртон, Ивар Нёрве, Торстейн Лёнинг, Сесиль Деландж, Бьорн Йенсег
Описание: Группа сотрудников телекомпании «Real TV», во главе со своим боссом отправляется в далёкий лесной угол, чтобы, испытав себя на выживание, сплотиться в единый коллектив для предстоящего выполнения важного производственного задания. Несмотря на страшную находку, руководитель похода отказывается прервать едва начавшееся путешествие, которое, как выяснилось, грозит реальной смертельной опасностью.
Kinopoisk|Imdb|Sample
Тип релиза: BDRemux 1080p
Контейнер: MKV
Видео: MPEG4 Video (H264) 1920x1080 24fps 25998 kbps
Аудио: Russian AC-3 / 2 ch / 48.0 KHz / 192 Kbps
Аудио 2: Norwegian AC-3 / 6 ch / 48.0 KHz / 448 Kbps
Формат субтитров: softsub (SRT)
За блюрей спасибо kozzloh

MediaInfo
General
Unique ID : 173666312243272579553258733544096781154 (0x82A6EA44859F9504936CA701FE41D362)
Complete name : C:\Users\Вика\Desktop\Villmark.2003.1080p.BDRemux.mkv
Format : Matroska
Format version : Version 4 / Version 2
File size : 15.8 GiB
Duration : 1h 24mn
Overall bit rate mode : Variable
Overall bit rate : 26.6 Mbps
Encoded date : UTC 2015-05-10 09:19:01
Writing application : mkvmerge v7.4.0 ('Circles') 64bit built on Dec 12 2014 12:19:56
Writing library : libebml v1.3.0 + libmatroska v1.4.1
DURATION : 01:21:09.581000000
NUMBER_OF_FRAMES : 433
NUMBER_OF_BYTES : 13095
_STATISTICS_WRITING_APP : mkvmerge v7.4.0 ('Circles') 64bit built on Dec 12 2014 12:19:56
_STATISTICS_WRITING_DATE_UTC : 2015-05-10 09:19:01
_STATISTICS_TAGS : BPS DURATION NUMBER_OF_FRAMES NUMBER_OF_BYTES
Video
ID : 1
Format : AVC
Format/Info : Advanced Video Codec
Format profile : High@L4.1
Format settings, CABAC : Yes
Format settings, ReFrames : 4 frames
Format settings, GOP : M=3, N=15
Codec ID : V_MPEG4/ISO/AVC
Duration : 1h 24mn
Bit rate mode : Variable
Bit rate : 25.5 Mbps
Maximum bit rate : 32.0 Mbps
Width : 1 920 pixels
Height : 1 080 pixels
Display aspect ratio : 16:9
Frame rate mode : Constant
Frame rate : 24.000 fps
Standard : NTSC
Color space : YUV
Chroma subsampling : 4:2:0
Bit depth : 8 bits
Scan type : Progressive
Bits/(Pixel*Frame) : 0.512
Stream size : 15.1 GiB (96%)
Language : English
Default : No
Forced : No
Color primaries : BT.709
Transfer characteristics : BT.709
Matrix coefficients : BT.709
DURATION : 01:24:55.834000000
NUMBER_OF_FRAMES : 122300
NUMBER_OF_BYTES : 16560007394
_STATISTICS_WRITING_APP : mkvmerge v7.4.0 ('Circles') 64bit built on Dec 12 2014 12:19:56
_STATISTICS_WRITING_DATE_UTC : 2015-05-10 09:19:01
_STATISTICS_TAGS : BPS DURATION NUMBER_OF_FRAMES NUMBER_OF_BYTES
Audio #1
ID : 2
Format : AC-3
Format/Info : Audio Coding 3
Mode extension : CM (complete main)
Format settings, Endianness : Big
Codec ID : A_AC3
Duration : 1h 24mn
Bit rate mode : Constant
Bit rate : 192 Kbps
Channel(s) : 2 channels
Channel positions : Front: L R
Sampling rate : 48.0 KHz
Bit depth : 16 bits
Compression mode : Lossy
Stream size : 117 MiB (1%)
Title : VO (den904)
Language : Russian
Default : Yes
Forced : No
DURATION : 01:24:37.856000000
NUMBER_OF_FRAMES : 158683
NUMBER_OF_BYTES : 284359936
_STATISTICS_WRITING_APP : mkvmerge v7.4.0 ('Circles') 64bit built on Dec 12 2014 12:19:56
_STATISTICS_WRITING_DATE_UTC : 2015-05-10 09:19:01
_STATISTICS_TAGS : BPS DURATION NUMBER_OF_FRAMES NUMBER_OF_BYTES
Audio #2
ID : 3
Format : AC-3
Format/Info : Audio Coding 3
Mode extension : CM (complete main)
Format settings, Endianness : Big
Codec ID : A_AC3
Duration : 1h 24mn
Bit rate mode : Constant
Bit rate : 448 Kbps
Channel(s) : 6 channels
Channel positions : Front: L C R, Side: L R, LFE
Sampling rate : 48.0 KHz
Bit depth : 16 bits
Compression mode : Lossy
Stream size : 272 MiB (2%)
Title : Original
Language : Norwegian
Default : No
Forced : No
Text #1
ID : 4
Format : UTF-8
Codec ID : S_TEXT/UTF8
Codec ID/Info : UTF-8 Plain Text
Language : Russian
Default : No
Forced : No
Text #2
ID : 5
Format : UTF-8
Codec ID : S_TEXT/UTF8
Codec ID/Info : UTF-8 Plain Text
Language : English
Default : No
Forced : No
Menu
00:00:00.000 : en:Chapter 01
00:10:44.541 : en:Chapter 02
00:18:38.000 : en:Chapter 03
00:28:05.666 : en:Chapter 04
00:37:15.750 : en:Chapter 05
00:43:20.375 : en:Chapter 06
00:51:12.833 : en:Chapter 07
00:58:30.958 : en:Chapter 08
01:05:07.458 : en:Chapter 09
01:12:39.125 : en:Chapter 10
01:16:35.333 : en:Chapter 11
01:20:08.666 : en:Chapter 12
01:24:37.333 : en:Chapter 13
Скриншоты
Скачать

Скачать торрент!

Как скачивать? · Что такое торрент? · Рейтинг и ограничения

Сайт не распространяет и не хранит электронные версии произведений, а лишь предоставляет доступ к создаваемому пользователями каталогу ссылок на торрент-файлы, которые содержат только списки хеш-сумм

[Профиль] [ЛС]
Показать сообщения:    
Ответить на тему

Текущее время: Сегодня 23:50

Часовой пояс: GMT + 4



Вы не можете начинать темы
Вы не можете отвечать на сообщения
Вы не можете редактировать свои сообщения
Вы не можете удалять свои сообщения
Вы не можете голосовать в опросах
Вы не можете прикреплять файлы к сообщениям
Вы не можете скачивать файлы