Людоед / Ravenous (Антония Бёрд / Antonia Bird) [1999, США, Чехия, Великобритания, ужасы, триллер, BDRip 1080p] MVO (Позитив) + AVO (Гоблин) + AVO (Визгунов) + Sub Rus, Eng + Original Eng

Ответить на тему
 
Автор Сообщение

user ®

Стаж: 7 лет 7 месяцев

Сообщений: 20008

Пост Пост: #1 от 13-Май-2015 23:33

[Цитировать]

Людоед / Ravenous
Страна: США, Чехия, Великобритания
Жанр: ужасы, триллер
Год выпуска: 1999
Продолжительность: 01:40:55-Перевод 1: Профессиональный (многоголосый закадровый) Позитив / LDV
Перевод 2: Авторский (одноголосый закадровый) Гоблин
Перевод 3: Авторский (одноголосый закадровый) Визгунов
Cубтитры: русские, английские
Оригинальная аудиодорожка: английский-Режиссер: Антония Бёрд / Antonia Bird
В ролях: Гай Пирс, Роберт Карлайл, Дэвид Аркетт, Джереми Дэвис, Джеффри Джонс, Джон Спенсер, Стивен Спинелла, Нил МакДонаф, Джозеф Раннингфокс, Билл Брочтруп-Описание: Действие фильма происходит в 1847 году, в период войны Америки с Мексикой. Капитана Джона Бойда чествуют и награждают различными медалями, однако он не рад этим обстоятельствам. Причиной его чествования стал захват ставки противника в одиночку, но только он один знает все обстоятельства столь смелого поступка — он просто струсил, бросил оружие и притворился мёртвым. Так он пролежал длительное время среди мёртвых товарищей, а впоследствии в состоянии аффекта поубивал всех неприятелей. Однако продвижения по службе Джон не получил, вместо этого его направляют в одинокий форт в горах Калифорнии. Через некоторое время в форт приходит оборванный и изголодавшийся мужчина по имени Калхун. Из его истории становится ясно, что он был членом каравана, который вёл проводник. Проводник заблудился и люди, в связи с наступившей зимой, поселились в пещере. Однако запасов еды было мало и в тот момент, когда они кончились люди начали поедать друг друга. Калхуну удалось бежать.-Сэмпл: https://yadi.sk/i/R9ELp8m4gZZp8-Тип релиза: BDRip 1080p
Контейнер: MKV-Видео: AVC, 1912x812 (2.35:1), 9500 kbps, 23.976 fps
Аудио 1: DTS / 5.1 ch / 48 kHz / 24 bit / 1510 kbps - MVO [Позитив / LDV].
Аудио 2: DTS / 5.1 ch / 48 kHz / 24 bit / 1510 kbps - AVO [Goblin].
Аудио 3: DTS / 5.1 ch / 48 kHz / 24 bit / 1510 kbps - AVO [Vizgunov].
Аудио 4: DTS / 5.1 ch / 48 kHz / 24 bit / 1510 kbps - Original.
Формат субтитров: softsub (SRT)
Цитата:
  • Дорожки 1-3 получены наложением выделенного/чистого голоса на центральный канал оригинала.
  • У Визгунова не полностью переведён эпизод молитвы Тофлера на 26-ой минуте, сделана вставка из многогласки. Плюс неизвестный умелец до меня похоже чистил голос от лишних шумов Noise Gate'ом, в результате кое-где спилил тихие окончания и начала фраз. Другого варианта голоса я не нашёл. Проблему исправлял, вставками похожих окончаний с других фраз.
    MediaInfo
G:\Фильмы\Людоед. BDRip. 1080p..mkv
General
Unique ID : 211260526603295831502725611475011253432 (0x9EEF4C240F5571E785C4DA552B7634B8)
Complete name : G:\Фильмы\Людоед. BDRip. 1080p..mkv
Format : Matroska
Format version : Version 4 / Version 2
File size : 11.0 GiB
Duration : 1h 40mn
Overall bit rate : 15.5 Mbps
Movie name : -=MediaClub-kaspr=-
Encoded date : UTC 2015-05-12 04:16:47
Writing application : mkvmerge v6.6.0 ('The Edge Of The In Between') built on Dec 1 2013 17:55:00
Writing library : libebml v1.3.0 + libmatroska v1.4.1
Video #1
ID : 1
Format : AVC
Format/Info : Advanced Video Codec
Format profile : High@L4.1
Format settings, CABAC : Yes
Format settings, ReFrames : 5 frames
Codec ID : V_MPEG4/ISO/AVC
Duration : 1h 40mn
Bit rate : 9 500 Kbps
Width : 1 912 pixels
Height : 812 pixels
Display aspect ratio : 2.35:1
Frame rate : 23.976 fps
Color space : YUV
Chroma subsampling : 4:2:0
Bit depth : 8 bits
Scan type : Progressive
Bits/(Pixel*Frame) : 0.255
Stream size : 6.48 GiB (59%)
Writing library : x264 core 142 r2431+42 c69a006 tMod [8-bit@4:2:0 X86_64]
Encoding settings : cabac=1 / ref=5 / deblock=1:-3:-3 / analyse=0x3:0x113 / me=umh / subme=11 / psy=1 / fade_compensate=0.00 / psy_rd=1.00:0.20 / mixed_ref=1 / me_range=32 / chroma_me=1 / trellis=2 / 8x8dct=1 / cqm=0 / deadzone=21,11 / fast_pskip=0 / chroma_qp_offset=-3 / threads=12 / lookahead_threads=2 / sliced_threads=0 / nr=0 / decimate=0 / interlaced=0 / bluray_compat=0 / constrained_intra=0 / fgo=0 / bframes=8 / b_pyramid=2 / b_adapt=2 / b_bias=0 / direct=3 / weightb=1 / open_gop=0 / weightp=2 / keyint=240 / keyint_min=23 / scenecut=40 / intra_refresh=0 / rc=2pass / mbtree=0 / bitrate=9500 / ratetol=1.0 / qcomp=0.60 / qpmin=0:0:0 / qpmax=69:69:69 / qpstep=4 / cplxblur=20.0 / qblur=0.5 / ip_ratio=1.40 / pb_ratio=1.30 / aq=4:0.80 / aq-sensitivity=10.00 / aq-factor=1.00:1.00:1.00 / aq2=0 / aq3=0
Language : English
Default : Yes
Forced : Yes
Audio #2
ID : 2
Format : DTS
Format/Info : Digital Theater Systems
Codec ID : A_DTS
Duration : 1h 40mn
Bit rate mode : Constant
Bit rate : 1 510 Kbps
Channel(s) : 6 channels
Channel positions : Front: L C R, Side: L R, LFE
Sampling rate : 48.0 KHz
Bit depth : 24 bits
Compression mode : Lossy
Stream size : 1.06 GiB (10%)
Title : DTS / 5.1 ch / 48 kHz / 24 bit / 1510 kbps - MVO [Positiv].
Language : Russian
Default : Yes
Forced : No
Audio #3
ID : 3
Format : DTS
Format/Info : Digital Theater Systems
Codec ID : A_DTS
Duration : 1h 40mn
Bit rate mode : Constant
Bit rate : 1 510 Kbps
Channel(s) : 6 channels
Channel positions : Front: L C R, Side: L R, LFE
Sampling rate : 48.0 KHz
Bit depth : 24 bits
Compression mode : Lossy
Stream size : 1.06 GiB (10%)
Title : DTS / 5.1 ch / 48 kHz / 24 bit / 1510 kbps - AVO [Goblin].
Language : Russian
Default : No
Forced : No
Audio #4
ID : 4
Format : DTS
Format/Info : Digital Theater Systems
Codec ID : A_DTS
Duration : 1h 40mn
Bit rate mode : Constant
Bit rate : 1 510 Kbps
Channel(s) : 6 channels
Channel positions : Front: L C R, Side: L R, LFE
Sampling rate : 48.0 KHz
Bit depth : 24 bits
Compression mode : Lossy
Stream size : 1.06 GiB (10%)
Title : DTS / 5.1 ch / 48 kHz / 24 bit / 1510 kbps - AVO [Vizgunov].
Language : Russian
Default : No
Forced : No
Audio #5
ID : 5
Format : DTS
Format/Info : Digital Theater Systems
Codec ID : A_DTS
Duration : 1h 40mn
Bit rate mode : Constant
Bit rate : 1 510 Kbps
Channel(s) : 6 channels
Channel positions : Front: L C R, Side: L R, LFE
Sampling rate : 48.0 KHz
Bit depth : 24 bits
Compression mode : Lossy
Stream size : 1.06 GiB (10%)
Title : DTS / 5.1 ch / 48 kHz / 24 bit / 1510 kbps - Original.
Language : English
Default : No
Forced : No
Text #6
ID : 6
Format : UTF-8
Codec ID : S_TEXT/UTF8
Codec ID/Info : UTF-8 Plain Text
Language : Russian
Default : No
Forced : No
Text #7
ID : 7
Format : UTF-8
Codec ID : S_TEXT/UTF8
Codec ID/Info : UTF-8 Plain Text
Language : English
Default : No
Forced : No
Скриншоты
Скачать

Скачать торрент!

Как скачивать? · Что такое торрент? · Рейтинг и ограничения

Сайт не распространяет и не хранит электронные версии произведений, а лишь предоставляет доступ к создаваемому пользователями каталогу ссылок на торрент-файлы, которые содержат только списки хеш-сумм

[Профиль] [ЛС]
Показать сообщения:    
Ответить на тему

Текущее время: Сегодня 21:40

Часовой пояс: GMT + 4



Вы не можете начинать темы
Вы не можете отвечать на сообщения
Вы не можете редактировать свои сообщения
Вы не можете удалять свои сообщения
Вы не можете голосовать в опросах
Вы не можете прикреплять файлы к сообщениям
Вы не можете скачивать файлы