Изъяны / Faults (Райли Стернс / Riley Stearns) [2014, США, триллер, комедия, драма, WEB-DL 720p] VO (datynet) + Original Eng + Sub (Eng, Rus)

Ответить на тему
 
Автор Сообщение

user ®

Стаж: 7 лет 7 месяцев

Сообщений: 20008

Пост Пост: #1 от 13-Май-2015 23:33

[Цитировать]

Изъяны / Faults
Страна: США
Жанр: триллер, комедия, драма
Год выпуска: 2014
Продолжительность: 01:29:53
Режиссер: Райли Стернс / Riley Stearns
В ролях: Лиленд Орсер, Мэри Элизабет Уинстэд, Крис Эллис, Бет Грант, Лэнс Реддик, Джон Грайз
Описание: Несколько лет назад Ансель Рот был прекрасным специалистом в области контроля разума, который даже выпустил несколько книг. Однако последняя работа полностью разорила его, после чего он оказался в очень сложном финансовом состоянии, а сейчас даже не может оплатить обед в дешевой забегаловке.
Но однажды к нему за помощью обращаются родители молодой девушки Клэр. Они обеспокоены тем, что их дочь попала в секту под названием «Изъяны» и считают, что она находится в страшной опасности. Они пытались сделать все возможное, чтобы наставить ее на пусть истинный, однако Клэр просто не желает никого слушать.
Ради денег Ансель соглашается помочь этим людям, но он даже представить себе не может, какое сложное дело ждет его впереди...
Перевод: Одноголосый закадровый (datynet)
Оригинальная аудиодорожка: английский
Cубтитры: английские, русские
Сэмпл: http://sendfile.su/1117369
Тип релиза: WEB-DL 720p
Контейнер: MKV
Видео: H.264/AVC, 1280x540 (2.40:1), 3864 Kbps, 23.976 fps
Аудио RUS: AC3, 2 ch, 44.1 kHz, 192 kbps
Аудио ENG: AC3, 6 ch, 48 kHz, 384 kbps
Формат субтитров: softsub (SRT)
MediaInfo
General
Unique ID : 236531499439206411803432875911149626199 (0xB1F24F4C2CA0E1B5B04FFC4DA371A357)
Complete name : Faults.2014.WEB-DL.720p.mkv
Format : Matroska
Format version : Version 2
File size : 2.84 GiB
Duration : 1h 29mn
Overall bit rate : 4 530 Kbps
Encoded date : UTC 2015-05-12 14:29:20
Writing application : mkvmerge v4.4.0 ('Die Wiederkehr') сборка от Oct 31 2010 21:52:48
Writing library : libebml v1.0.0 + libmatroska v1.0.0
Video
ID : 1
Format : AVC
Format/Info : Advanced Video Codec
Format profile : Main@L3.1
Format settings, CABAC : No
Format settings, ReFrames : 2 frames
Muxing mode : Header stripping
Codec ID : V_MPEG4/ISO/AVC
Duration : 1h 29mn
Bit rate : 3 864 Kbps
Width : 1 280 pixels
Height : 540 pixels
Display aspect ratio : 2.40:1
Frame rate mode : Constant
Frame rate : 23.976 fps
Color space : YUV
Chroma subsampling : 4:2:0
Bit depth : 8 bits
Scan type : Progressive
Bits/(Pixel*Frame) : 0.233
Stream size : 2.43 GiB (85%)
Language : English
Default : Yes
Forced : No
Color primaries : BT.709
Transfer characteristics : BT.709
Matrix coefficients : BT.709
Audio #1
ID : 2
Format : AC-3
Format/Info : Audio Coding 3
Mode extension : CM (complete main)
Format settings, Endianness : Big
Muxing mode : Header stripping
Codec ID : A_AC3
Duration : 1h 29mn
Bit rate mode : Constant
Bit rate : 192 Kbps
Channel(s) : 2 channels
Channel positions : Front: L R
Sampling rate : 44.1 KHz
Bit depth : 16 bits
Compression mode : Lossy
Delay relative to video : 7ms
Stream size : 123 MiB (4%)
Language : Russian
Default : No
Forced : No
Audio #2
ID : 3
Format : AC-3
Format/Info : Audio Coding 3
Mode extension : CM (complete main)
Format settings, Endianness : Big
Muxing mode : Header stripping
Codec ID : A_AC3
Duration : 1h 29mn
Bit rate mode : Constant
Bit rate : 384 Kbps
Channel(s) : 6 channels
Channel positions : Front: L C R, Side: L R, LFE
Sampling rate : 48.0 KHz
Bit depth : 16 bits
Compression mode : Lossy
Stream size : 247 MiB (8%)
Language : English
Default : No
Forced : No
Text #1
ID : 4
Format : UTF-8
Codec ID : S_TEXT/UTF8
Codec ID/Info : UTF-8 Plain Text
Language : English
Default : Yes
Forced : No
Text #2
ID : 5
Format : UTF-8
Codec ID : S_TEXT/UTF8
Codec ID/Info : UTF-8 Plain Text
Language : Russian
Default : No
Forced : No
Скриншоты
Скачать

Скачать торрент!

Как скачивать? · Что такое торрент? · Рейтинг и ограничения

Сайт не распространяет и не хранит электронные версии произведений, а лишь предоставляет доступ к создаваемому пользователями каталогу ссылок на торрент-файлы, которые содержат только списки хеш-сумм

[Профиль] [ЛС]
Показать сообщения:    
Ответить на тему

Текущее время: Сегодня 12:12

Часовой пояс: GMT + 4



Вы не можете начинать темы
Вы не можете отвечать на сообщения
Вы не можете редактировать свои сообщения
Вы не можете удалять свои сообщения
Вы не можете голосовать в опросах
Вы не можете прикреплять файлы к сообщениям
Вы не можете скачивать файлы