Ночной беглец / Run All Night (Хауме Кольет-Серра / Jaume Collet-Serra) [2015, США, боевик, триллер, драма, криминал, детектив, WEB-DLRip] Dub (Звук с TS)

Ответить на тему
 
Автор Сообщение

user ®

Стаж: 7 лет 7 месяцев

Сообщений: 20008

Пост Пост: #1 от 13-Май-2015 11:09

[Цитировать]

Ночной беглец / Run All Night«Одна ночь, чтобы свести счёты» Страна: США
Жанр: боевик, триллер, драма, криминал, детектив
Год выпуска: 2015
Продолжительность: 01:48:27
Перевод: Профессиональный (дублированный) Звук с TS
Cубтитры: корейские
Оригинальная аудиодорожка: нет
Режиссер: Хауме Кольет-Серра / Jaume Collet-Serra
В ролях: Лиам Нисон, Юэль Киннаман, Дженезис Родригез, Бойд Холбрук, Винсент Д’Онофрио, Коммон, Эд Харрис, Холт МакКэллани, Брюс МакГилл, Бо Напп
Описание: Джимми Колон — высокопрофессинал в своей сфере деятельности. Когда-то он разрешал сложные, спорные вопросы, иными словами, зарабатывал на убийстве людей, но все это осталось в прошлом. Сейчас, сидя с бокалом виски в уютном кресле, герой пытается забыть былые времена, когда сотрудничал с местной мафией. Главарь бандитов, Шон Макгуаер, был лучшим другом Джимми, и последний выполнял его жестокие заказы. Теперь престарелый киллер стал никому не нужен.
Внезапно про Колона вспоминают и отправляют к нему новый заказ. Джимми ошеломлен, теперь объектом являлся никто иной, а его собственный сын. У бедняги есть всего одна ночь, чтобы спасти парня. Наемнику приходится убить сына босса, чтобы спасти своего. Мужчина понимает, что мафия это так не оставит и пытается спрятать Майкла, так зовут его отпрыска. Вот только секрет становится известен заклятому врагу убийцы — хитрому детективу, который преследует его уже целых тридцать лет.
Старому киллеру приходится бежать. Теперь спасение родной, но уже позабытой семьи от бандитов становится приоритетной целью героя. На несчастных открывается охота со всех сторон. Колон знает, что на их поиски отправлены лучшие ищейки Нью-Йорка. Поэтому персонаж решает непременно устранить своего давнего друга, иначе ему с сыном не выжить в сложившейся ситуации.

Качество видео: WEB-DLRip
Формат видео: AVI
Видео: 656x272 (2.41:1), 23.976 fps, XviD build 73 ~776 kbps avg, 0.18 bit/pixel
Аудио: 48 kHz, MPEG Layer 3, 2 ch, ~128.00 kbps avg
Формат субтитров: hardsub (неотключаемые)
MediaInfo
Общее
Полное имя : S:ФильмыНочной беглец. 2015. WEBRip (AleksSin).avi
Формат : AVI
Формат/Информация : Audio Video Interleave
Размер файла : 746 Мбайт
Продолжительность : 1 ч. 54 м.
Общий поток : 913 Кбит/сек
Программа кодирования : VirtualDubMod 1.5.10.3 | www.virtualdub-fr.org || (build 2550/release)
Библиотека кодирования : VirtualDubMod build 2550/release
Видео
Идентификатор : 0
Формат : MPEG-4 Visual
Профиль формата : Advanced Simple@L5
Параметр BVOP формата : 1
Параметр QPel формата : Нет
Параметр GMC формата : Без точки перехода
Параметр матрицы формата : Выборочная
Идентификатор кодека : XVID
Идентификатор кодека/Подсказка : XviD
Продолжительность : 1 ч. 54 м.
Битрейт : 776 Кбит/сек
Ширина : 656 пикс.
Высота : 272 пикс.
Соотношение сторон : 2,40:1
Частота кадров : 23,976 кадр/сек
Цветовое пространство : YUV
Подвыборка цветности : 4:2:0
Битовая глубина : 8 бит
Тип развёртки : Прогрессивная
Метод сжатия : С потерями
Бит/(Пиксели*Кадры) : 0.181
Размер потока : 634 Мбайт (85%)
Библиотека кодирования : XviD 73
Аудио
Идентификатор : 1
Формат : MPEG Audio
Версия формата : Version 1
Профиль формата : Layer 3
Идентификатор кодека : 55
Идентификатор кодека/Подсказка : MP3
Продолжительность : 1 ч. 54 м.
Вид битрейта : Постоянный
Битрейт : 128 Кбит/сек
Каналы : 2 канала
Частота : 48,0 КГц
Метод сжатия : С потерями
Размер потока : 105 Мбайт (14%)
Выравнивание : Соединение по промежуткам
Продолжительность промежутка : 42 мс. (1,00 видеокадр)
Время предзагрузки промежутка : 504 ms
Библиотека кодирования : LAME3.99r
Настройки программы : -m s -V 4 -q 2 -lowpass 17 -b 128
Скриншот c названием фильма Скриншоты
Скачать

Скачать торрент!

Как скачивать? · Что такое торрент? · Рейтинг и ограничения

Сайт не распространяет и не хранит электронные версии произведений, а лишь предоставляет доступ к создаваемому пользователями каталогу ссылок на торрент-файлы, которые содержат только списки хеш-сумм

[Профиль] [ЛС]
Показать сообщения:    
Ответить на тему

Текущее время: Сегодня 20:12

Часовой пояс: GMT + 4



Вы не можете начинать темы
Вы не можете отвечать на сообщения
Вы не можете редактировать свои сообщения
Вы не можете удалять свои сообщения
Вы не можете голосовать в опросах
Вы не можете прикреплять файлы к сообщениям
Вы не можете скачивать файлы