Коварный / Infidus (Джулио Де Санти / Giulio De Santi) [2015, Италия, триллер, DVDRip] VO (Мегапыхарь)

Ответить на тему
 
Автор Сообщение

user ®

Стаж: 7 лет 7 месяцев

Сообщений: 20008

Пост Пост: #1 от 12-Май-2015 22:48

[Цитировать]

Коварный / Infidus
Страна: Италия
Жанр: Жесткое кино
Год выпуска: 2015
Продолжительность: 01: 15: 58
Перевод: Одноголосый закадровый Мегапыхарь
Cубтитры: нет
Режиссер: Джулио Де Санти / Giulio De Santi
В ролях: Бонини Мино, Массимо Карателли, Маурицио Дзаффино, Стефания Бонини, Андреа Ди Спирито, Уолтер Монтано
Описание: Недалеко от столицы Италии жизнь идет привычно и размеренно. В ходе этой жизни тесно пересекаются два человека – Массимо, который только, что потерял супругу, в результате убийства бандитами, отчаянно старается отомстить преступникам, и Барарба, который только вышел из заключения, узнавший о том, что его родной брат член банды. Теперь Барабба осознает, что изменить такое положение вещей можно только кровью и жестокостью.
Образец видео
Качество видео: DVDRip
Формат видео: AVI
Видео: xvid, 720x404, 16/9, 25.000 fps, 899 fps
Аудио: AC-3, 192 kbps, 2 ch
MediaInfo
Format : AVI
Format/Info : Audio Video Interleave
File size : 598 MiB
Duration : 1h 15mn
Overall bit rate : 1 100 Kbps
Writing application : VirtualDubMod 1.5.10.2 (build 2540/release)
Writing library : VirtualDubMod build 2540/release
Video
ID : 0
Format : xvid
Codec ID : xvid
Duration : 1h 15mn
Bit rate : 899 Kbps
Width : 720 pixels
Height : 404 pixels
Display aspect ratio : 16:9
Frame rate : 25.000 fps
Bits/(Pixel*Frame) : 0.124
Stream size : 488 MiB (82%)
Audio
ID : 1
Format : AC-3
Format/Info : Audio Coding 3
Mode extension : CM (complete main)
Format settings, Endianness : Big
Codec ID : 2000
Duration : 1h 15mn
Bit rate mode : Constant
Bit rate : 192 Kbps
Channel(s) : 2 channels
Channel positions : Front: L R
Sampling rate : 48.0 KHz
Compression mode : Lossy
Stream size : 104 MiB (17%)
Alignment : Split accross interleaves
Interleave, duration : 40 ms (1.00 video frame)
Interleave, preload duratio : 500 ms
Screenshot с названием Скриншоты И все эти аплодисменты - [url=http://***/forum/tracker.php?pid=11225034]МЕГАПЫХАРЬ[/url]
Скачать

Скачать торрент!

Как скачивать? · Что такое торрент? · Рейтинг и ограничения

Сайт не распространяет и не хранит электронные версии произведений, а лишь предоставляет доступ к создаваемому пользователями каталогу ссылок на торрент-файлы, которые содержат только списки хеш-сумм

[Профиль] [ЛС]
Показать сообщения:    
Ответить на тему

Текущее время: Сегодня 00:10

Часовой пояс: GMT + 4



Вы не можете начинать темы
Вы не можете отвечать на сообщения
Вы не можете редактировать свои сообщения
Вы не можете удалять свои сообщения
Вы не можете голосовать в опросах
Вы не можете прикреплять файлы к сообщениям
Вы не можете скачивать файлы