Возмездие / Воздаяние / Возвращение непостижимого / Retribution (Гай Мэгар / Guy Magar) [1987, США, ужасы, детектив, BDRemux 1080p] AVO (Гаврилов) + VO + Sub Ger + Original Eng

Ответить на тему
 
Автор Сообщение

user ®

Стаж: 7 лет 7 месяцев

Сообщений: 20008

Пост Пост: #1 от 12-Май-2015 19:42

[Цитировать]

Возмездие / Воздаяние / Возвращение непостижимого / Retribution
Год выпуска: 1987
Страна: США
Жанр: ужасы, детектив
Продолжительность: 01:49:02
Перевод1: Авторский (одноголосый закадровый)(А.Гаврилов)
Перевод2: Одноголосый (закадровый)
Субтитры: немецкие
Оригинальная аудиодорожка: английский
Режиссер: Гай Мэгар / Guy Magar
В ролях: Деннис Липском, Лесли Уинг, Сьюзэнн Снайдер, Джефф Померанц, Джордж Мердок, Пэмела Данлэп, Сьюзэн Перец, Клэр Пек, Крис Капуто, Хойт Экстон
Описание: Неудачливый художник Джордж Миллер решает покончить с жизнью в ночь Хеллоуина. Но спрыгнув с крыши, он почему-то не умирает, хотя остаться живым при таком падении невозможно. По выходу из больницы его начинают преследовать кошмары, в которых он убивает незнакомых ему людей, а потом выясняется, что эти убийства имели место в действительности. Джордж и его друзья пытаются понять, что же на самом деле с ним происходит, и постепенно становится понятно, что Джордж не всегда Джордж. Время от времени его телом завладевает кто-то другой, обладающий страшной зловещей силой. Кто-то, кто вернул Джорджа с того света, с какой-то неизвестной целью.

Качество: BDRemux 1080p
Формат: MKV
Видео кодек: H.264
Аудио кодек: AC3, FLAC
Видео: 1920 x 1080 /MPEG-4 AVC Video / 34966 kbps / 1080p / 23,976 fps / 16:9 / High Profile 4.1
Аудио1: Русский / AC3 / 2.0 / 192 Kbps / 48,0 kHz(Gavrilov)
Аудио2: Русский / AC3 / 2.0 / 192 Kbps / 48,0 kHz(VO)
Аудио3: English / FLAC / 2.0 / 48 kHz / ~621 kbps (Original)
Аудио4: English / FLAC / 2.0 / 48 kHz / ~389 kbps(Commentary)
Субтитры: Soft Sub (SRT)
Главы

MediaInfo
Общее
Уникальный идентификатор : 178272294229097221754853622284433851124 (0x861DFEB66C1A3870BBFAB93129B182F4)
Полное имя : D:\Retribution.1987.BDRemux.1080p.2xRus.Eng.mkv
Формат : Matroska
Версия формата : Version 4 / Version 2
Размер файла : 27,7 Гбайт
Продолжительность : 1 ч. 49 м.
Режим общего битрейта : Переменный
Общий поток : 36,4 Мбит/сек
Название фильма : Retribution
Дата кодирования : UTC 2015-05-11 04:03:44
Программа кодирования : mkvmerge v7.3.0 ('Nouages') 32bit built on Oct 22 2014 18:44:01
Библиотека кодирования : libebml v1.3.0 + libmatroska v1.4.1
DURATION : 01:49:02.720000000
NUMBER_OF_FRAMES : 76673
NUMBER_OF_BYTES : 507827957
_STATISTICS_WRITING_APP : mkvmerge v7.3.0 ('Nouages') 32bit built on Oct 22 2014 18:44:01
_STATISTICS_WRITING_DATE_UTC : 2015-05-11 04:03:44
_STATISTICS_TAGS : BPS DURATION NUMBER_OF_FRAMES NUMBER_OF_BYTES
Видео
Идентификатор : 1
Формат : AVC
Формат/Информация : Advanced Video Codec
Профиль формата : High@L4.1
Параметр CABAC формата : Да
Параметр ReFrames формата : 4 кадра
Параметр GOP формата : N=1
Идентификатор кодека : V_MPEG4/ISO/AVC
Продолжительность : 1 ч. 49 м.
Вид битрейта : Переменный
Номинальный битрейт : 35,0 Мбит/сек
Максимальный битрейт : 37,0 Мбит/сек
Ширина : 1920 пикселей
Высота : 1080 пикселей
Соотношение сторон : 16:9
Режим частоты кадров : Постоянный
Частота кадров : 23,976 кадра/сек
Стандарт вещания : NTSC
Цветовое пространство : YUV
Субдискретизация насыщенности : 4:2:0
Битовая глубина : 8 бит
Тип развёртки : Прогрессивная
Бит/(Пиксели*Кадры) : 0.704
Заголовок : Retribution 1987 1080p GER Blu-ray AVC DTS-HD MA 2.0
Библиотека кодирования : x264pro - Adobe CS Exporter Plug-in
Настройки программы : cabac=1 / ref=4 / deblock=1:-2:-2 / analyse=0x3:0x113 / me=umh / subme=9 / psy=1 / psy_rd=1.00:0.25 / mixed_ref=1 / me_range=16 /
chroma_me=1 / trellis=1 / 8x8dct=1 / cqm=0 / deadzone=6,6 / fast_pskip=1 / chroma_qp_offset=-4 / threads=12 / lookahead_threads=2 / sliced_threads=0 / slices=4 / nr=0 / decimate=0
/ interlaced=0 / bluray_compat=1 / constrained_intra=0 / bframes=0 / weightp=1 / keyint=24 / keyint_min=1 / scenecut=40 / intra_refresh=0 / rc_lookahead=24 / rc=abr / mbtree=1 /
bitrate=35000 / ratetol=1.0 / qcomp=0.80 / qpmin=0 / qpmax=69 / qpstep=4 / vbv_maxrate=37000 / vbv_bufsize=30000 / nal_hrd=vbr / ip_ratio=1.10 / aq=1:0.05
Default : Нет
Forced : Нет
Основные цвета : BT.709
Характеристики трансфера : BT.709
Коэффициенты матрицы : BT.709
Аудио #1
Идентификатор : 2
Формат : AC-3
Формат/Информация : Audio Coding 3
Расширение режима : CM (complete main)
Параметр Endianness формата : Big
Идентификатор кодека : A_AC3
Продолжительность : 1 ч. 49 м.
Вид битрейта : Постоянный
Битрейт : 192 Кбит/сек
Каналы : 2 канала
Расположение каналов : Front: L R
Частота : 48,0 КГц
Битовая глубина : 16 бит
Метод сжатия : С потерями
Размер потока : 150 Мбайт (1%)
Заголовок : Gavrilov AC3 2.0 192 kbps
Язык : Russian
Default : Нет
Forced : Нет
Аудио #2
Идентификатор : 3
Формат : AC-3
Формат/Информация : Audio Coding 3
Расширение режима : CM (complete main)
Параметр Endianness формата : Big
Идентификатор кодека : A_AC3
Продолжительность : 1 ч. 49 м.
Вид битрейта : Постоянный
Битрейт : 192 Кбит/сек
Каналы : 2 канала
Расположение каналов : Front: L R
Частота : 48,0 КГц
Битовая глубина : 16 бит
Метод сжатия : С потерями
Размер потока : 150 Мбайт (1%)
Заголовок : VO AC3 2.0 192 kbps
Язык : Russian
Default : Нет
Forced : Нет
Аудио #3
Идентификатор : 4
Формат : FLAC
Формат/Информация : Free Lossless Audio Codec
Идентификатор кодека : A_FLAC
Продолжительность : 1 ч. 49 м.
Вид битрейта : Переменный
Каналы : 2 канала
Частота : 48,0 КГц
Битовая глубина : 16 бит
Заголовок : Original FLAC 2.0 ~621 kbps
Библиотека кодирования : libFLAC 1.2.1 (UTC 2007-09-17)
Язык : English
Default : Нет
Forced : Нет
Аудио #4
Идентификатор : 5
Формат : FLAC
Формат/Информация : Free Lossless Audio Codec
Идентификатор кодека : A_FLAC
Продолжительность : 1 ч. 49 м.
Вид битрейта : Переменный
Каналы : 2 канала
Частота : 48,0 КГц
Битовая глубина : 16 бит
Заголовок : Commentary FLAC 2.0 ~389 kbps
Библиотека кодирования : libFLAC 1.2.1 (UTC 2007-09-17)
Язык : English
Default : Нет
Forced : Нет
Текст
Идентификатор : 6
Формат : UTF-8
Идентификатор кодека : S_TEXT/UTF8
Идентификатор кодека/Информация : UTF-8 Plain Text
Язык : German
Default : Нет
Forced : Нет
Меню
00:00:00.000 : en:00:00:00.000
00:08:28.174 : en:00:08:28.174
00:14:51.974 : en:00:14:51.974
00:23:44.089 : en:00:23:44.089
00:31:14.790 : en:00:31:14.790
00:35:06.229 : en:00:35:06.229
00:40:15.079 : en:00:40:15.079
00:45:22.803 : en:00:45:22.803
00:50:56.720 : en:00:50:56.720
00:56:00.023 : en:00:56:00.023
01:03:00.485 : en:01:03:00.485
01:09:14.817 : en:01:09:14.817
01:18:10.644 : en:01:18:10.644
01:25:26.705 : en:01:25:26.705
01:33:32.524 : en:01:33:32.524
01:45:22.650 : en:01:45:22.650
Сэмпл Скриншоты
Скачать

Скачать торрент!

Как скачивать? · Что такое торрент? · Рейтинг и ограничения

Сайт не распространяет и не хранит электронные версии произведений, а лишь предоставляет доступ к создаваемому пользователями каталогу ссылок на торрент-файлы, которые содержат только списки хеш-сумм

[Профиль] [ЛС]
Показать сообщения:    
Ответить на тему

Текущее время: Сегодня 06:24

Часовой пояс: GMT + 4



Вы не можете начинать темы
Вы не можете отвечать на сообщения
Вы не можете редактировать свои сообщения
Вы не можете удалять свои сообщения
Вы не можете голосовать в опросах
Вы не можете прикреплять файлы к сообщениям
Вы не можете скачивать файлы