Спайк Айленд / Spike Island (Мат Уайткросс / Mat Whitecross) [2012, Великобритания, драма, музыка, BDRip 720p] Sub Rus, Eng + Original Eng

Ответить на тему
 
Автор Сообщение

user ®

Стаж: 7 лет 7 месяцев

Сообщений: 20008

Пост Пост: #1 от 12-Май-2015 19:42

[Цитировать]

Спайк Айленд / Spike Island
Страна: Великобритания
Жанр: драма, музыка
Год выпуска: 2012
Продолжительность: 1:44:53
Перевод: Субтитры indieART [Владимир Блинов]
Cубтитры: русские, английские
Оригинальная аудиодорожка: английский
Режиссер: Мат Уайткросс / Mat Whitecross
Сценарий: Крис Когхилл / Chris Coghill
В ролях: Эллиотт Титтенсор, Нико Мираллегро, Джордан Мерфи, Адам Лонг, Оливер Хилд, Эмилия Кларк, Крис Когхилл, Мэттью МакНалти, Майкл Соча, Лесли МэнвиллОписание:В мае 1990 года в самый разгар инди-рока и "манчестерской волны", совсем молодая группа из Манчестера отправляется на остров в близь Ливерпуля, для того чтобы попасть на концерт другой группы из Манчестера, уже ставшей культовой для всей Великобритании. Титс, Додж, Малыш Газ, Зиппи и Пэнфолд мечтают не только увидеть в живую своих кумиров - The Stone Roses, на вечеринке, которая обещает собрать более 30 тысяч человек, и стать наиважнейшим событием для всего мира, но и вручить им свою демо-запись, чтобы в будущем, выступать с ними на одной сцене.перевёл диалоги и песни - Владимир Блинов aka indieART. СЭМПЛ: Тот самый момент, когда время и место - особенные.
Чуваки играют свой хит и пишут демо-кассету Ten Mile Smile.
Тип релиза: BDRip 720p
Контейнер: MKV
Видео: AVC, 4443 Кбит/с, 1280x544 (2,35:1), 23,976 кадра/с
Аудио: DTS, 1509 Кбит/с (6 каналов), 48 КГц, 24 бит | English
MediaInfo
Общее
Уникальный идентификатор : 196250402443047015802150556342886847669 (0x93A473E1F079D455A200427F321BD4B5)
Полное имя : Спайк Айленд (2012) rus sub indieART.mkv
Формат : Matroska
Версия формата : Version 4 / Version 2
Размер файла : 4,36 Гбайт
Продолжительность : 1 ч. 44 м.
Общий поток : 5950 Кбит/сек
Дата кодирования : UTC 2015-05-11 04:02:49
Программа кодирования : mkvmerge v7.2.0 ('On Every Street') 64bit built on Sep 13 2014 15:52:10
Библиотека кодирования : libebml v1.3.0 + libmatroska v1.4.1
Видео
Идентификатор : 1
Формат : AVC
Формат/Информация : Advanced Video Codec
Профиль формата : High@L4.1
Параметр CABAC формата : Да
Параметр ReFrames формата : 5 кадров
Идентификатор кодека : V_MPEG4/ISO/AVC
Продолжительность : 1 ч. 44 м.
Битрейт : 4443 Кбит/сек
Ширина : 1280 пикселей
Высота : 544 пикселя
Соотношение сторон : 2,35:1
Режим частоты кадров : Постоянный
Частота кадров : 23,976 кадра/сек
Цветовое пространство : YUV
Субдискретизация насыщенности : 4:2:0
Битовая глубина : 8 бит
Тип развёртки : Прогрессивная
Бит/(Пиксели*Кадры) : 0.266
Размер потока : 3,17 Гбайт (73%)
Библиотека кодирования : x264 core 140 r2377 1ca7bb9
Настройки программы : cabac=1 / ref=5 / deblock=1:0:0 / analyse=0x3:0x133 / me=umh / subme=7 / psy=1 / psy_rd=1.00:0.00 / mixed_ref=1 / me_range=16 / chroma_me=1 / trellis=1 / 8x8dct=1 / cqm=0 / deadzone=21,11 / fast_pskip=0 / chroma_qp_offset=-2 / threads=12 / lookahead_threads=2 / sliced_threads=0 / nr=0 / decimate=1 / interlaced=0 / bluray_compat=0 / constrained_intra=0 / bframes=3 / b_pyramid=2 / b_adapt=2 / b_bias=0 / direct=3 / weightb=1 / open_gop=0 / weightp=2 / keyint=250 / keyint_min=23 / scenecut=40 / intra_refresh=0 / rc_lookahead=50 / rc=2pass / mbtree=1 / bitrate=4443 / ratetol=1.0 / qcomp=0.60 / qpmin=0 / qpmax=69 / qpstep=4 / cplxblur=20.0 / qblur=0.5 / ip_ratio=1.40 / aq=1:1.00
Язык : English
Default : Да
Forced : Нет
Аудио
Идентификатор : 2
Формат : DTS
Формат/Информация : Digital Theater Systems
Режим : 16
Параметр Endianness формата : Big
Идентификатор кодека : A_DTS
Продолжительность : 1 ч. 44 м.
Вид битрейта : Постоянный
Битрейт : 1509 Кбит/сек
Каналы : 6 каналов
Расположение каналов : Front: L C R, Side: L R, LFE
Частота : 48,0 КГц
Битовая глубина : 24 бит
Метод сжатия : С потерями
Размер потока : 1,11 Гбайт (25%)
Язык : English
Default : Да
Forced : Нет
Текст #1
Идентификатор : 3
Формат : ASS
Идентификатор кодека : S_TEXT/ASS
Идентификатор кодека/Информация : Advanced Sub Station Alpha
Метод сжатия : Без потерь
Заголовок : indieART [Владимир Блинов]
Язык : Russian
Default : Да
Forced : Нет
Текст #2
Идентификатор : 4
Формат : UTF-8
Идентификатор кодека : S_TEXT/UTF8
Идентификатор кодека/Информация : UTF-8 Plain Text
Заголовок : eng
Язык : English
Default : Нет
Forced : Нет
Меню
00:00:00.000 : en:00:00:00.000
00:10:50.900 : en:00:10:50.900
00:22:40.276 : en:00:22:40.276
00:35:29.002 : en:00:35:29.002
00:41:52.510 : en:00:41:52.510
00:48:31.617 : en:00:48:31.617
00:54:01.447 : en:00:54:01.447
01:03:01.236 : en:01:03:01.236
01:12:35.142 : en:01:12:35.142
01:21:38.894 : en:01:21:38.894
01:29:48.508 : en:01:29:48.508
01:39:08.943 : en:01:39:08.943
Скриншоты
Скачать

Скачать торрент!

Как скачивать? · Что такое торрент? · Рейтинг и ограничения

Сайт не распространяет и не хранит электронные версии произведений, а лишь предоставляет доступ к создаваемому пользователями каталогу ссылок на торрент-файлы, которые содержат только списки хеш-сумм

[Профиль] [ЛС]
Показать сообщения:    
Ответить на тему

Текущее время: Сегодня 18:23

Часовой пояс: GMT + 4



Вы не можете начинать темы
Вы не можете отвечать на сообщения
Вы не можете редактировать свои сообщения
Вы не можете удалять свои сообщения
Вы не можете голосовать в опросах
Вы не можете прикреплять файлы к сообщениям
Вы не можете скачивать файлы