Морские динозавры: Путешествие в доисторический мир 3Д / Sea Rex: Journey to a Prehistoric World 3D (Ронан Шапален, Паскаль Вонг / Ronan Chapalain, Pascal Vuong) [2010 г., Документальный, HDTV 1080i] SideBySide / Горизонтальная анаморфная стереопара

Ответить на тему
 
Автор Сообщение

user ®

Стаж: 8 лет 8 месяцев

Сообщений: 20007

Пост Пост: #1 от 27-Окт-2010 10:27

[Цитировать]

Морские динозавры: Путешествие в доисторический мир 3Д / Sea Rex: Journey to a Prehistoric World 3D
Страна: Франция, Великобритания
Жанр: Документальный
Год выпуска: 2010
Продолжительность: 00:39:17
Перевод: Профессиональный (дублированный)
Русские субтитры: нет
Режиссер: Ронан Шапален / Ronan Chapalain, Паскаль Вонг / Pascal Vuong
В ролях: Гийом Денеф, Норберт Феррер, Хлоя Холлингс, Ричард Райдер
Описание: Откройте для себя самую интересную страницу жизни планеты Земля! С этим фильмом в составе отважной команды вы перенесетесь на 200 млн. лет назад, в невероятный мир далеких времен. Впервые вы отправляетесь в незабываемое и опасное путешествие на встречу с повелителями океана знаменитого Юрского периода — гигантскими морскими динозаврами. Вас ждут поразительные открытия о жизни древней и современной фауны, и невероятная красота подводных ландшафтов, от которых захватывает дух. Удивляйтесь, испытайте страх и восторг от встречи с великим прошлым нашей планеты. Мы подарим вам новый мир, о существовании которого вы даже не подозревали…
автор рипа slach
Качество: HDTV
Формат: TS
Формат 3D: Half SideBySide / Горизонтальная анаморфная стереопара
Видео кодек: h.264
Аудио кодек: AC3
Видео: MPEG4 Video (H264) 1920x1080 25.00fps 11.5 Mbps
Аудио: Russian: Dolby AC3 48000Hz 2ch 448 Kbps - Русский Дубляж
Доп. информация:Для просмотра понадобится 3D телевизор или стереоплеер, через него можно смотреть с любыми видами очков и стереомониторов
Также возможен просмотр 2D версии на обычном плеере отрезав второй ракурс ffd фильтром

Скриншоты

MediaInfo

Format : MPEG-TS
File size : 3.45 GiB
Duration : 39mn 17s
Overall bit rate : 12.6 Mbps
Video
ID : 322 (0x142)
Menu ID : 14102 (0x3716)
Format : AVC
Format/Info : Advanced Video Codec
Format profile : Main@L4.0
Format settings, CABAC : Yes
Format settings, ReFrames : 3 frames
Codec ID : 27
Duration : 39mn 17s
Bit rate : 11.5 Mbps
Width : 1 920 pixels
Height : 1 080 pixels
Display aspect ratio : 16:9
Frame rate : 25.000 fps
Standard : Component
Color space : YUV
Chroma subsampling : 4:2:0
Bit depth : 8 bits
Scan type : Interlaced
Scan order : Top Field First
Bits/(Pixel*Frame) : 0.222
Stream size : 3.16 GiB (91%)
Color primaries : BT.709-5, BT.1361, IEC 61966-2-4, SMPTE RP177
Transfer characteristics : BT.709-5, BT.1361
Matrix coefficients : BT.709-5, BT.1361, IEC 61966-2-4 709, SMPTE RP177
Audio
ID : 402 (0x192)
Menu ID : 14102 (0x3716)
Format : AC-3
Format/Info : Audio Coding 3
Mode extension : CM (complete main)
Codec ID : 6
Duration : 39mn 16s
Bit rate mode : Constant
Bit rate : 448 Kbps
Channel(s) : 2 channels
Channel positions : Front: L R
Sampling rate : 48.0 KHz
Bit depth : 16 bits
Video delay : -563ms
Stream size : 126 MiB (4%)
Language : Russian
Language, more info : Clean effects
Menu
ID : 1402 (0x57A)
Menu ID : 14102 (0x3716)
Duration : 39mn 17s
List : 322 (0x142) (AVC) / 402 (0x192) (AC-3, Russian)
Language : / Russian
Скачать

Скачать торрент!

Как скачивать? · Что такое торрент? · Рейтинг и ограничения

Сайт не распространяет и не хранит электронные версии произведений, а лишь предоставляет доступ к создаваемому пользователями каталогу ссылок на торрент-файлы, которые содержат только списки хеш-сумм

[Профиль] [ЛС]
Показать сообщения:    
Ответить на тему

Текущее время: Сегодня 23:42

Часовой пояс: GMT + 4



Вы не можете начинать темы
Вы не можете отвечать на сообщения
Вы не можете редактировать свои сообщения
Вы не можете удалять свои сообщения
Вы не можете голосовать в опросах
Вы не можете прикреплять файлы к сообщениям
Вы не можете скачивать файлы