Паразит: Часть 1 / Parasite: Part 1 / Kiseijû: Part 1 (Такаси Ямадзаки / Takashi Yamazaki) [2014, Япония, ужасы, фантастика, WEB-DLRip] DVO (DeadSno & den904)

Ответить на тему
 
Автор Сообщение

user ®

Стаж: 13 лет

Сообщений: 15071

Пост Пост: #1 от 10-Май-2015 21:18

[Цитировать]

Паразит: Часть 1 / Parasite: Part 1 / Kiseijû: Part 1- -Страна: Япония
Жанр: ужасы, фантастика
Год выпуска: 2014
Продолжительность: 01:49:52-Перевод: Любительский (двухголосый закадровый) (DeadSno & den904)-Cубтитры: нет
Оригинальная аудиодорожка: нет
Режиссер: Такаси Ямадзаки / Takashi Yamazaki
В ролях: Сёта Сомэтани, Эри Фукацу, Аи Хашимото, Кадзуки Китамура, Масахиро Хигасидэ, Таданобу Асано, Мико Ёки, Дзюн Кунимура, Хирофуми Арай, Пьер Таки...
Описание: Паразиты… Создания, живущие за счёт своего носителя, обладают совершенно нечеловеческой силой. Посланные небом должны проникать в мозг человека для полной власти над носителем. Но кому как повезёт… Именно эта неудача одного паразита спасает жизнь школьника Изуми Шиничи, живущего обычной жизнью. Но и эта же неудача делает его носителем этого загадочного существа, обрекая Шиничи на постоянную борьбу за выживание с другими, более сильными паразитами.
Релиз от - &
Сэмпл: http://multi-up.com/1047859
Качество видео: WEB-DLRip
Формат видео: AVI
Видео: MPEG-4 Visual at 816 Кбит/сек; 688 x 288 (2.389) at 23.976 fps
Аудио: MPEG Audio at 128 Кбит/сек; 2 канала, 48,0 КГц
Автор -
MediaInfo
Общее
Полное имя : D:\Фильмы\Азиатские\Паразит\Parasite.Part 1.2014.WEB-DLRip.745MB. rip by [Assassin's Creed].avi
Формат : AVI
Формат/Информация : Audio Video Interleave
Размер файла : 749 Мбайт
Продолжительность : 1 ч. 49 м.
Общий поток : 953 Кбит/сек
Программа кодирования : VirtualDubMod 1.5.10.3 | www.virtualdub-fr.org || (build 2550/release)
Библиотека кодирования : VirtualDubMod build 2550/release
Видео
Идентификатор : 0
Формат : MPEG-4 Visual
Профиль формата : Advanced Simple@L5
Параметр BVOP формата : 1
Параметр QPel формата : Нет
Параметр GMC формата : Без точки перехода
Параметр матрицы формата : Default (MPEG)
Идентификатор кодека : XVID
Идентификатор кодека/Подсказка : XviD
Продолжительность : 1 ч. 49 м.
Битрейт : 816 Кбит/сек
Ширина : 688 пикселей
Высота : 288 пикселей
Соотношение сторон : 2,40:1
Частота кадров : 23,976 кадра/сек
Цветовое пространство : YUV
Субдискретизация насыщенности : 4:2:0
Битовая глубина : 8 бит
Тип развёртки : Прогрессивная
Метод сжатия : С потерями
Бит/(Пиксели*Кадры) : 0.172
Размер потока : 641 Мбайт (86%)
Библиотека кодирования : XviD 1.2.1 (UTC 2008-12-04)
Аудио
Идентификатор : 1
Формат : MPEG Audio
Версия формата : Version 1
Профиль формата : Layer 3
Идентификатор кодека : 55
Идентификатор кодека/Подсказка : MP3
Продолжительность : 1 ч. 49 м.
Вид битрейта : Постоянный
Битрейт : 128 Кбит/сек
Каналы : 2 канала
Частота : 48,0 КГц
Метод сжатия : С потерями
Размер потока : 101 Мбайт (13%)
Выравнивание : Соединение по промежуткам
Продолжительность промежутка : 42 мс. (1,00 видеокадр)
Время предзагрузки промежутка : 504 мс.
Библиотека кодирования : LAME3.99r
Настройки программы : -m s -V 4 -q 2 -lowpass 17 -b 128
Скриншот c названием фильма Скриншоты
Скачать

Скачать торрент! Паразит: Часть 1 / Parasite: Part 1 / Kiseijû: Part 1 (Такаси Ямадзаки / Takashi Yamazaki) [2014, Япония, ужасы, фантастика, WEB-DLRip] DVO (DeadSno & den904)

Как скачивать? · Что такое торрент? · Рейтинг и ограничения

Сайт не распространяет и не хранит электронные версии произведений, а лишь предоставляет доступ к создаваемому пользователями каталогу ссылок на торрент-файлы, которые содержат только списки хеш-сумм

[Профиль] [ЛС]
Показать сообщения:    
Ответить на тему

Текущее время: Сегодня 15:35

Часовой пояс: GMT + 4



Вы не можете начинать темы
Вы не можете отвечать на сообщения
Вы не можете редактировать свои сообщения
Вы не можете удалять свои сообщения
Вы не можете голосовать в опросах
Вы не можете прикреплять файлы к сообщениям
Вы не можете скачивать файлы