Самый желанный мужчина / The Most Desired Man / Der Bewegte Mann (Зёнке Вортманн / Sönke Wortmann) [1994, Германия, комедия, мелодрама, HDTV 1080i] AVO (Ю.Живов) + Original Ger

Ответить на тему
 
Автор Сообщение

user ®

Стаж: 7 лет 7 месяцев

Сообщений: 20008

Пост Пост: #1 от 10-Май-2015 12:00

[Цитировать]

Самый желанный мужчина / The Most Desired Man / Der Bewegte Mann
Страна: Германия
Жанр: комедия, мелодрама
Год выпуска: 1994
Продолжительность: 01:29:49
Перевод: Авторский (одноголосый закадровый) Ю.Живов
Cубтитры: нет
Оригинальная аудиодорожка: немецкий
Режиссер: Зёнке Вортманн / Sönke Wortmann
В ролях: Тиль Швайгер / Til Schweiger, Йоахим Круль / Joachim Król, Катя Риманн / Katja Riemann, Руфус Бек / Rufus Beck, Армин Роде / Armin Rohde
Описание: Фильм снят по мотивам комиксов Ральфа Кёнига («Der bewegte Mann» и «Pretty Baby»).
Молодой и красивый Аксель работает в ресторане со своей подружкой Дорой. Ему просто не повезло, когда та застает его с другой женщиной.
Оказавшись на улице с вещами, он соглашается пожить у Норберта — гомосексуального приятеля своего друга Вальтера, который также находит Акселя очень привлекательным. Вернет ли Дора Акселя, или же он останется с Норбертом?...
Сэмпл: https://yadi.sk/i/79_k6Y7cgW2p5
Тип релиза: HDTV 1080i
Контейнер: MKV
Видео: 1920x1080 (16:9), 25 fps, MPEG-4 AVC, 6982 Kbps
Аудио 1: Russian: 48 kHz, AC3, 2 ch, 224 kbps |Ю. Живов|
Аудио 2: German: 48 kHz, MP2, 2 ch, 256 kbps
MediaInfo
General
Unique ID : 227176338254386591974608174210447823655 (0xAAE8923D714150A1880EF2A02323D327)
Format : Matroska
Format version : Version 4 / Version 2
File size : 4.78 GiB
Duration : 1h 29mn
Overall bit rate : 7 614 Kbps
Encoded date : UTC 2015-05-05 15:51:39
Writing application : mkvmerge v7.8.0 ('River Man') 64bit built on Mar 27 2015 16:31:37
Writing library : libebml v1.3.1 + libmatroska v1.4.2
DURATION : 01:29:49.888000000
NUMBER_OF_FRAMES : 168434
NUMBER_OF_BYTES : 150916864
_STATISTICS_WRITING_APP : mkvmerge v7.8.0 ('River Man') 64bit built on Mar 27 2015 16:31:37
_STATISTICS_WRITING_DATE_UTC : 2015-05-05 15:51:39
_STATISTICS_TAGS : BPS DURATION NUMBER_OF_FRAMES NUMBER_OF_BYTES
Video
ID : 1
Format : AVC
Format/Info : Advanced Video Codec
Format profile : High@L4.0
Format settings, CABAC : Yes
Format settings, ReFrames : 4 frames
Codec ID : V_MPEG4/ISO/AVC
Bit rate : 6 982 Kbps
Width : 1 920 pixels
Height : 1 080 pixels
Display aspect ratio : 16:9
Frame rate mode : Variable
Original frame rate : 25.000 fps
Color space : YUV
Chroma subsampling : 4:2:0
Bit depth : 8 bits
Scan type : MBAFF
Scan order : Top Field First
Default : Yes
Forced : No
Color primaries : BT.709
Transfer characteristics : BT.709
Matrix coefficients : BT.709
Audio #1
ID : 2
Format : AC-3
Format/Info : Audio Coding 3
Mode extension : CM (complete main)
Format settings, Endianness : Big
Codec ID : A_AC3
Duration : 1h 29mn
Bit rate mode : Constant
Bit rate : 224 Kbps
Channel(s) : 2 channels
Channel positions : Front: L R
Sampling rate : 48.0 KHz
Bit depth : 16 bits
Compression mode : Lossy
Stream size : 144 MiB (3%)
Title : Ю.Живов
Language : Russian
Default : Yes
Forced : No
Audio #2
ID : 3
Format : MPEG Audio
Format version : Version 1
Format profile : Layer 2
Codec ID : A_MPEG/L2
Codec ID/Hint : MP2
Duration : 1h 29mn
Bit rate mode : Constant
Bit rate : 256 Kbps
Channel(s) : 2 channels
Sampling rate : 48.0 KHz
Compression mode : Lossy
Stream size : 164 MiB (3%)
Language : German
Default : No
Forced : No
Скриншоты
Скачать

Скачать торрент!

Как скачивать? · Что такое торрент? · Рейтинг и ограничения

Сайт не распространяет и не хранит электронные версии произведений, а лишь предоставляет доступ к создаваемому пользователями каталогу ссылок на торрент-файлы, которые содержат только списки хеш-сумм

[Профиль] [ЛС]
Показать сообщения:    
Ответить на тему

Текущее время: Сегодня 19:41

Часовой пояс: GMT + 4



Вы не можете начинать темы
Вы не можете отвечать на сообщения
Вы не можете редактировать свои сообщения
Вы не можете удалять свои сообщения
Вы не можете голосовать в опросах
Вы не можете прикреплять файлы к сообщениям
Вы не можете скачивать файлы