Заключенный Р / R (Тобиас Линдхольм / Tobias Lindholm, Михаэль Ноер / Michael Noer) [2010, Дания, драма, криминал, WEB-DL 720p] MVO (R5) + VO (zamez) + Original (Dan)+ Sub (Rus, Eng, Dan)

Ответить на тему
 
Автор Сообщение

user ®

Стаж: 7 лет 7 месяцев

Сообщений: 20008

Пост Пост: #1 от 10-Май-2015 12:00

[Цитировать]

Заключенный Р / R
Год выпуска: 2010
Страна: Дания
Жанр: драма, криминал
Продолжительность: 01:36:03
Перевод №1: профессиональный многоголосый закадровый (R5)
Перевод №2: одноголосный закадровый (zamez)
Cубтитры: русские, английские, датские
Оригинальная аудиодорожка: датская
Оглавление: 9 англоязычных глав
Режиссёр: Тобиас Линдхольм /Tobias Lindholm/, Михаэль Ноер /Michael Noer/
В ролях: Йохан Филип Асбек /Pilou Asbæk/, Дульфи Аль-Джабури /Dulfi Al-Jabouri/, Роланд Мюллер /Roland Møller/, Якоб Гредстед /Jacob Gredsted/, Омар Шаргави /Omar Shargawi/
Описание:
В тюрьму, известную на всю Данию своими жесткими условиями содержания, прибывает заключенный по имени Р. Здесь он будет отбывать срок за насилие. Тюрьма — это параллельный мир, со своими правилами, понятиями о чести и обязанностями. Тут на окнах — решетки, а пол залит кровью. Р помещают в отсек к самым агрессивным зекам. Здесь ему предстоит найти свое место, научиться перемещаться и бороться за выживание.
Дополнительная информация:
IMDB User Rating→: 7.2/10 (2,808 votes)
Рейтинг фильма КиноПоиск.Ru→: 6.231 (1091 голос)
  • В видеоряде присутствует английский хардсаб;
  • Оригинальная дорожка взята с датского DVD (WEB-DL AC3@384kbps vs. DVD AC3@448kbps), датские субтитры оттуда же. Кроме того, на диске была DTS-дорожка, но она не айс;
  • Многоголоска и русские субтитры с DVD «Нового диска», озвучка zamez'а найдена на просторах сети.
    Качество: WEB-DL (thnx alfablac)
    Контейнер: MKV
    Видеопоток: 960@1280x720p, 25 fps, x264 ~4252 kbps
    Аудиопоток №1 (RUS): DD 5.1, 48 kHz, 448 kbps | профессиональный многоголосый закадровый (R5)
    Аудиопоток №2 (RUS): DD 5.1, 48 kHz, 448 kbps | одноголосный закадровый (zamez)
    Аудиопоток №3 (DAN): DD 5.1, 48 kHz, 448 kbps
    Субтитры №1 (RUS): SRT/UTF8 | R5
    Субтитры №2 (ENG): SRT/UTF8
    Субтитры №3 (DAN): SRT/UTF8 | SDH
    Сэмпл: Яндекс.Диск→, multi-up→, nekaka→, sendspace→
    MediaInfo
General
Unique ID                                : 226566227432263321325387542528013604484 (0xAA7311743C50281994C944EA8D2F9684)
Complete name                            : R.2010.720p.WEB-DL.H.264.DD.SRT.mkv
Format                                   : Matroska
Format version                           : Version 4 / Version 2
File size                                : 3.76 GiB
Duration                                 : 1h 36mn
Overall bit rate                         : 5 597 Kbps
Movie name                               : R (2010) 720p WEB-DL
Encoded date                             : UTC 2015-05-09 00:20:22
Writing application                      : mkvmerge v7.8.0 ('River Man') 64bit built on Mar 27 2015 16:31:37
Writing library                          : libebml v1.3.1 + libmatroska v1.4.2
DURATION                                 : 01:29:42.318000000
NUMBER_OF_FRAMES                         : 615
NUMBER_OF_BYTES                          : 22796
_STATISTICS_WRITING_APP                  : mkvmerge v7.8.0 ('River Man') 64bit built on Mar 27 2015 16:31:37
_STATISTICS_WRITING_DATE_UTC             : 2015-05-09 00:20:22
_STATISTICS_TAGS                         : BPS DURATION NUMBER_OF_FRAMES NUMBER_OF_BYTES
Video
ID                                       : 1
Format                                   : AVC
Format/Info                              : Advanced Video Codec
Format profile                           : Main@L3.1
Format settings, CABAC                   : No
Format settings, ReFrames                : 2 frames
Codec ID                                 : V_MPEG4/ISO/AVC
Duration                                 : 1h 36mn
Bit rate                                 : 4 142 Kbps
Width                                    : 960 pixels
Height                                   : 720 pixels
Display aspect ratio                     : 16:9
Frame rate mode                          : Constant
Frame rate                               : 25.000 fps
Color space                              : YUV
Chroma subsampling                       : 4:2:0
Bit depth                                : 8 bits
Scan type                                : Progressive
Bits/(Pixel*Frame)                       : 0.240
Stream size                              : 2.78 GiB (74%)
Title                                    : 960@1280x720, 25 fps, x264 ~4252 kbps
Language                                 : English
Default                                  : Yes
Forced                                   : No
Color range                              : Limited
Color primaries                          : BT.709
Transfer characteristics                 : BT.709
Matrix coefficients                      : BT.709
Audio #1
ID                                       : 2
Format                                   : AC-3
Format/Info                              : Audio Coding 3
Mode extension                           : CM (complete main)
Format settings, Endianness              : Big
Codec ID                                 : A_AC3
Duration                                 : 1h 36mn
Bit rate mode                            : Constant
Bit rate                                 : 448 Kbps
Channel(s)                               : 6 channels
Channel positions                        : Front: L C R, Side: L R, LFE
Sampling rate                            : 48.0 KHz
Bit depth                                : 16 bits
Compression mode                         : Lossy
Stream size                              : 308 MiB (8%)
Title                                    : RUS MVO R5 DD 5.1, 48 kHz, 448 kbps
Language                                 : Russian
Default                                  : Yes
Forced                                   : No
Audio #2
ID                                       : 3
Format                                   : AC-3
Format/Info                              : Audio Coding 3
Mode extension                           : CM (complete main)
Format settings, Endianness              : Big
Codec ID                                 : A_AC3
Duration                                 : 1h 36mn
Bit rate mode                            : Constant
Bit rate                                 : 448 Kbps
Channel(s)                               : 6 channels
Channel positions                        : Front: L C R, Side: L R, LFE
Sampling rate                            : 48.0 KHz
Bit depth                                : 16 bits
Compression mode                         : Lossy
Stream size                              : 308 MiB (8%)
Title                                    : RUS VO zamez DD 5.1, 48 kHz, 448 kbps
Language                                 : Russian
Default                                  : No
Forced                                   : No
Audio #3
ID                                       : 4
Format                                   : AC-3
Format/Info                              : Audio Coding 3
Mode extension                           : CM (complete main)
Format settings, Endianness              : Big
Codec ID                                 : A_AC3
Duration                                 : 1h 36mn
Bit rate mode                            : Constant
Bit rate                                 : 448 Kbps
Channel(s)                               : 6 channels
Channel positions                        : Front: L C R, Side: L R, LFE
Sampling rate                            : 48.0 KHz
Bit depth                                : 16 bits
Compression mode                         : Lossy
Stream size                              : 308 MiB (8%)
Title                                    : DAN DD 5.1, 48 kHz, 448 kbps
Language                                 : Danish
Default                                  : No
Forced                                   : No
Text #1
ID                                       : 5
Format                                   : UTF-8
Codec ID                                 : S_TEXT/UTF8
Codec ID/Info                            : UTF-8 Plain Text
Title                                    : RUS R5 SRT
Language                                 : Russian
Default                                  : No
Forced                                   : No
Text #2
ID                                       : 6
Format                                   : UTF-8
Codec ID                                 : S_TEXT/UTF8
Codec ID/Info                            : UTF-8 Plain Text
Title                                    : ENG SRT
Language                                 : English
Default                                  : No
Forced                                   : No
Text #3
ID                                       : 7
Format                                   : UTF-8
Codec ID                                 : S_TEXT/UTF8
Codec ID/Info                            : UTF-8 Plain Text
Title                                    : DAN SDH SRT
Language                                 : Danish
Default                                  : No
Forced                                   : No
Menu
00:00:00.000                             : en:Arrival to the prison
00:07:53.000                             : en:Fuck up, or get fucked up
00:18:34.000                             : en:You did it, didn't you?
00:32:01.000                             : en:A new idea
00:44:29.000                             : en:A part of the gang
00:58:25.000                             : en:You're in trouble if it goes wrong
01:10:50.000                             : en:The punishment
01:19:08.000                             : en:Hot Coffee
01:33:00.000                             : en:End Credits
Скриншоты
Скачать

Скачать торрент!

Как скачивать? · Что такое торрент? · Рейтинг и ограничения

Сайт не распространяет и не хранит электронные версии произведений, а лишь предоставляет доступ к создаваемому пользователями каталогу ссылок на торрент-файлы, которые содержат только списки хеш-сумм

[Профиль] [ЛС]
Показать сообщения:    
Ответить на тему

Текущее время: Сегодня 07:03

Часовой пояс: GMT + 4



Вы не можете начинать темы
Вы не можете отвечать на сообщения
Вы не можете редактировать свои сообщения
Вы не можете удалять свои сообщения
Вы не можете голосовать в опросах
Вы не можете прикреплять файлы к сообщениям
Вы не можете скачивать файлы