Чико и Рита / Chico & Rita (Тоно Эррандо / Tono Errando, Хавьер Марискаль / Javier Mariscal, Фернандо Труэба / Fernand) [2010, музыкальная мелодрама, мультфильм для взрослых, BDRip-AVC] MVO + Rus, Eng, Fre, Spa Sub + Original Spa

Ответить на тему
 
Автор Сообщение

user ®

Стаж: 13 лет

Сообщений: 15041

Пост Пост: #1 от 10-Май-2015 08:54

[Цитировать]

Чико и Рита | Chico & Rita
- Страна: Испания, Великобритания
Жанр: музыкальная мелодрама, мультфильм для взрослых
Продолжительность: 01:33:21
Год выпуска: 2010
Перевод: Профессиональный (многоголосый закадровый)
Русские субтитры: есть
Режиссёр: Тоно Эррандо / Tono Errando, Хавьер Марискаль / Javier Mariscal, Фернандо Труэба / Fernand Trueba
Роли озвучивали: Лимара Менесес, Эман Хоро Онья, Марио Гуерра, Джон Адамс, Ренни Аросарена, Бланка Роза Бланко, Джеки де ла Нуес, Ригоберто Феррера, Кен Форман, Рэй Гильон-ОписаниеЭта страстная история любви началась на Кубе конца 40-х годов. Чико — молодой пианист, влюбленный в джаз, Рита мечтает стать великой певицей. С той ночи, когда по воле судьбы они знакомятся в танце в одном из клубов Гаваны, жизнь постоянно соединяет и разлучает их, как персонажей болеро.-Релиз:

- Работа со звуком xfiles
- Работа с BDRemux'ом -Azureus-
-Оскар, 2012 год
Номинации (1):
Лучший анимационный фильм
Европейская киноакадемия, 2011 год
Победитель (1):
Лучший анимационный фильм
Гойя, 2011 год
Победитель (1):
Лучший анимационный фильм

Сэмпл

IMDb: 7.20 (5900)
Качество: BDRip-AVC [url=http://***/forum/viewtopic.php?t=4762755]BDRemux 1080p[/url] -Azureus-
Формат: MKV
Видео: AVC 1795 Kbps 1152 x 648 (1.778) 24.000 fps
Аудио: AC-3 448 Kbps 6 channels, 48.0 KHz Rus MVO
Аудио 2: AC-3 448 Kbps 6 channels, 48.0 KHz Eng
Субтитры: Rus, Eng, Fre, Spa SRT
MI
Format : Matroska
Format version : Version 4 / Version 2
File size : 1.79 GiB
Duration : 1h 33mn
Overall bit rate : 2 746 Kbps
Encoded date : UTC 2015-05-09 22:06:07
Writing application : mkvmerge v6.7.0 ('Back to the Ground') 32bit built on Jan 8 2014 15:03:17
Writing library : libebml v1.3.0 + libmatroska v1.4.1
Video
ID : 1
Format : AVC
Format/Info : Advanced Video Codec
Format profile : High@L4.1
Format settings, CABAC : Yes
Format settings, ReFrames : 11 frames
Codec ID : V_MPEG4/ISO/AVC
Duration : 1h 33mn
Bit rate : 1 795 Kbps
Width : 1 152 pixels
Height : 648 pixels
Display aspect ratio : 16:9
Frame rate mode : Constant
Frame rate : 24.000 fps
Color space : YUV
Chroma subsampling : 4:2:0
Bit depth : 8 bits
Scan type : Progressive
Bits/(Pixel*Frame) : 0.100
Stream size : 1.17 GiB (65%)
Title : Chico & Rita (2010) [***]
Writing library : x264 core 146 r2538kMod 121396c
Encoding settings : cabac=1 / ref=11 / deblock=1:-2:-1 / analyse=0x3:0x133 / me=umh / subme=11 / psy=1 / fade_compensate=0.00 / psy_rd=1.00:0.05 / mixed_ref=1 / me_range=32 / chroma_me=1 / trellis=2 / 8x8dct=1 / cqm=0 / deadzone=21,11 / fast_pskip=0 / chroma_qp_offset=-3 / threads=12 / lookahead_threads=3 / sliced_threads=0 / nr=0 / decimate=1 / interlaced=0 / bluray_compat=0 / constrained_intra=0 / fgo=0 / bframes=12 / b_pyramid=2 / b_adapt=2 / b_bias=0 / direct=3 / weightb=1 / open_gop=0 / weightp=2 / keyint=250 / keyint_min=23 / scenecut=40 / intra_refresh=0 / rc_lookahead=80 / rc=crf / mbtree=0 / crf=16.9000 / qcomp=0.60 / qpmin=0 / qpmax=69 / qpstep=4 / vbv_maxrate=50000 / vbv_bufsize=62500 / crf_max=0.0 / nal_hrd=none / filler=0 / ip_ratio=1.40 / pb_ratio=1.30 / aq=3:0.90
Language : Spanish
Default : Yes
Forced : No
Audio #1
ID : 2
Format : AC-3
Format/Info : Audio Coding 3
Mode extension : CM (complete main)
Format settings, Endianness : Big
Codec ID : A_AC3
Duration : 1h 33mn
Bit rate mode : Constant
Bit rate : 448 Kbps
Channel(s) : 6 channels
Channel positions : Front: L C R, Side: L R, LFE
Sampling rate : 48.0 KHz
Bit depth : 16 bits
Compression mode : Lossy
Stream size : 299 MiB (16%)
Title : MVO
Language : Russian
Default : Yes
Forced : No
Audio #2
ID : 3
Format : AC-3
Format/Info : Audio Coding 3
Mode extension : CM (complete main)
Format settings, Endianness : Big
Codec ID : A_AC3
Duration : 1h 33mn
Bit rate mode : Constant
Bit rate : 448 Kbps
Channel(s) : 6 channels
Channel positions : Front: L C R, Side: L R, LFE
Sampling rate : 48.0 KHz
Bit depth : 16 bits
Compression mode : Lossy
Stream size : 299 MiB (16%)
Title : Original
Language : Spanish
Default : No
Forced : No
Text #1
ID : 4
Format : UTF-8
Codec ID : S_TEXT/UTF8
Codec ID/Info : UTF-8 Plain Text
Title : Full
Language : Russian
Default : No
Forced : No
Text #2
ID : 5
Format : UTF-8
Codec ID : S_TEXT/UTF8
Codec ID/Info : UTF-8 Plain Text
Title : Full
Language : English
Default : No
Forced : No
Text #3
ID : 6
Format : UTF-8
Codec ID : S_TEXT/UTF8
Codec ID/Info : UTF-8 Plain Text
Title : Full
Language : French
Default : No
Forced : No
Text #4
ID : 7
Format : UTF-8
Codec ID : S_TEXT/UTF8
Codec ID/Info : UTF-8 Plain Text
Language : Spanish
Default : No
Forced : No
Menu
00:00:00.000 : en:Chapter 01
00:03:49.916 : en:Chapter 02
00:17:53.541 : en:Chapter 03
00:26:44.041 : en:Chapter 04
00:37:50.625 : en:Chapter 05
00:42:16.625 : en:Chapter 06
00:49:35.916 : en:Chapter 07
00:56:42.208 : en:Chapter 08
01:05:58.833 : en:Chapter 09
01:14:28.333 : en:Chapter 10
01:19:10.875 : en:Chapter 11
01:28:15.541 : en:Chapter 12
Скриншоты
Скачать

Скачать торрент! Чико и Рита / Chico & Rita (Тоно Эррандо / Tono Errando, Хавьер Марискаль / Javier Mariscal, Фернандо Труэба / Fernand) [2010, музыкальная мелодрама, мультфильм для взрослых, BDRip-AVC] MVO + Rus, Eng, Fre, Spa Sub + Original Spa

Как скачивать? · Что такое торрент? · Рейтинг и ограничения

Сайт не распространяет и не хранит электронные версии произведений, а лишь предоставляет доступ к создаваемому пользователями каталогу ссылок на торрент-файлы, которые содержат только списки хеш-сумм

[Профиль] [ЛС]
Показать сообщения:    
Ответить на тему

Текущее время: Сегодня 04:12

Часовой пояс: GMT + 4



Вы не можете начинать темы
Вы не можете отвечать на сообщения
Вы не можете редактировать свои сообщения
Вы не можете удалять свои сообщения
Вы не можете голосовать в опросах
Вы не можете прикреплять файлы к сообщениям
Вы не можете скачивать файлы