В горах Тайханшань / Tai Hang shan shang / On the Mountain of Tai Hang (Джиан Чен / Jian Chen, Донг Шен / Dong Shen, Лиан Вэй / Lian Wei) [2005, Китай, военный, история, драма, DVDRip] VO (А. Антипов)

Ответить на тему
 
Автор Сообщение

user ®

Стаж: 13 лет

Сообщений: 15071

Пост Пост: #1 от 09-Май-2015 23:39

[Цитировать]

В горах Тайханшань / Tai Hang shan shang / On the Mountain of Tai Hang
Страна: Китай
Жанр: военный, история, драма
Год выпуска: 2005
Продолжительность: 01:57:27
Перевод: Одноголосый закадровый А. Антипов
Cубтитры: нет
Режиссер: Джиан Чен / Jian Chen, Донг Шен / Dong Shen, Лиан Вэй / Lian Wei
В ролях: Ван Вуфу (Чжу Дэ), Ли Шушэн (Цзо Цюань), Сюй Гуанмин (Янь Сишань), Янь Шикуй (Вэй Лихуан), Ли Юбинь (Чжу Хуайбин), Тони Люн Ка Фай (Гонконг, в роли Хэ Бинъяня), Лю Де-Кай (Тайвань, в роли Хао Мэнлина), Кудо Шунсаку
Описание: Фильм рассказывает о героической борьбе китайского народа против японских захватчиков в годы Второй японо-китайской войны 1937-1945г., являвшейся частью Второй мировой войны. Фильм охватывает период Второй японо-китайской войны с сентября 1937г. по май 1940г. До начала крупномасштабной войны с Японией в Китае существовала сложная внутриполитическая обстановка. В стране уже десять лет шла гражданская война между Коммунистической Партией Китая и националистической партией Гоминьдана (возобновившаяся с новой силой после окончания Второй мировой войны, и продлившаяся вплоть до победы коммунистов на материке и изгнания правительства Гоминьдана на Тайвань), а также междоусобные войны между местными феодально-милитаристскими группировками. После начала японской агрессии между коммунистами и Гоминьданом было заключено перемирие для совместной борьбы с Японией.
Части Красной Армии Китая были переформированы и вошли в состав Национально-Революционной Армии Китая (вооруженных сил партии Гоминьдан). В фильме большое количество красочно поставленных крупномасштабных сражений, сцен стратегического и тактического управления, а также политических интриг.
Релиз от -
Сэмпл: http://multi-up.com/1047745
Качество видео: DVDRip (исх.[url=http://***/forum/viewtopic.php?t=3761952]DVD[/url])
Формат видео: AVI
Видео: XviD, 749 Kbps, 624 х 352 pixels, 23.976 fps
Аудио: MP3, 128 Kbps, 2 channels, 48.0 KHz

MediaInfo
General
Complete name : D:\On.the.Mountain.of.Tai.Hang.DVDRip.745mb.avi
Format : AVI
Format/Info : Audio Video Interleave
File size : 746 MiB
Duration : 1h 57mn
Overall bit rate : 887 Kbps
Writing application : VirtualDubMod 1.5.10.3 | www.virtualdub-fr.org || (build 2550/release)
Writing library : VirtualDubMod build 2550/release
Video
ID : 0
Format : MPEG-4 Visual
Format profile : Advanced Simple@L5
Format settings, BVOP : 1
Format settings, QPel : No
Format settings, GMC : No warppoints
Format settings, Matrix : Custom
Codec ID : XVID
Codec ID/Hint : XviD
Duration : 1h 57mn
Bit rate : 749 Kbps
Width : 624 pixels
Height : 352 pixels
Display aspect ratio : 16:9
Frame rate : 23.976 fps
Color space : YUV
Chroma subsampling : 4:2:0
Bit depth : 8 bits
Scan type : Progressive
Compression mode : Lossy
Bits/(Pixel*Frame) : 0.142
Stream size : 630 MiB (85%)
Writing library : XviD 73
Audio
ID : 1
Format : MPEG Audio
Format version : Version 1
Format profile : Layer 3
Codec ID : 55
Codec ID/Hint : MP3
Duration : 1h 57mn
Bit rate mode : Constant
Bit rate : 128 Kbps
Channel(s) : 2 channels
Sampling rate : 48.0 KHz
Compression mode : Lossy
Stream size : 108 MiB (14%)
Alignment : Aligned on interleaves
Interleave, duration : 42 ms (1.00 video frame)
Interleave, preload duration : 504 ms
Writing library : LAME3.99r
Encoding settings : -m s -V 4 -q 2 -lowpass 17 -b 128
Скриншот c названием фильма Скриншоты
Скачать

Скачать торрент! В горах Тайханшань / Tai Hang shan shang / On the Mountain of Tai Hang (Джиан Чен / Jian Chen, Донг Шен / Dong Shen, Лиан Вэй / Lian Wei) [2005, Китай, военный, история, драма, DVDRip] VO (А. Антипов)

Как скачивать? · Что такое торрент? · Рейтинг и ограничения

Сайт не распространяет и не хранит электронные версии произведений, а лишь предоставляет доступ к создаваемому пользователями каталогу ссылок на торрент-файлы, которые содержат только списки хеш-сумм

[Профиль] [ЛС]
Показать сообщения:    
Ответить на тему

Текущее время: Сегодня 21:20

Часовой пояс: GMT + 4



Вы не можете начинать темы
Вы не можете отвечать на сообщения
Вы не можете редактировать свои сообщения
Вы не можете удалять свои сообщения
Вы не можете голосовать в опросах
Вы не можете прикреплять файлы к сообщениям
Вы не можете скачивать файлы