Безграничный Бэтмен: Животные инстинкты / Batman Unlimited: Animal Instincts (Батч Лукич / Butch Lukic) [2015, мультфильм, боевик, приключения, BDRip] MVO

Ответить на тему
 
Автор Сообщение

user ®

Стаж: 13 лет

Сообщений: 15041

Пост Пост: #1 от 09-Май-2015 17:27

[Цитировать]

Безграничный Бэтмен: Животные инстинкты
Batman Unlimited: Animal Instincts
Страна: США
Жанр: мультфильм, боевик, приключения
Продолжительность: 01:17:22
Год выпуска: 2015-Перевод: Профессиональный (Многоголосый закадровый)
Русские субтитры: нет
Режиссёр: Батч Лукич / Butch Lukic-Роли озвучивали: Уилл Фридел, Лора Бэйли, Крис Диамантополос, Роджер Крэйг Смит, Дэна Снайдер, Юрий Ловенталь, Кит Шарабайка-Описание: Однажды вечером, патрулируя город, Бэтмен замечает на терртории лаборатории обездвиженные тела роботов-охранников и немедленно приземляется. Оказыватся, стальной волк с горящими красным светом глазами лишил обесточил их, а теперь планирует похитить главный объект лаборатории. Бэтмену удается предотвратить кражу, но остановить волка непросто – начинается ожесточенная погоня. Тем временем Найтвинг обнаруживает пробравшуюся в крупнейший ювелирный магазин Гепарду и вступает с ней в поединок. Гепарда не одна – вместе с ней прямоходящий крокодил Крок. На помощь Найтвингу приходит Флэш. Герои понимают, что дело серьезно, и одной кражей дело не ограничится. Вместе Бэтмен, Красный Робин, Найтвинг, Флэш и Зеленая Стрела должны остановить преступников – Крока, Пингвина, Гепарду и Гориллу.-Релиз от : | -Качество: [url=http://***/forum/viewtopic.php?t=5000647]BDRip[/url] Работа с BDRemux'ом и звуком [url=http://***/forum/profile.php?mode=viewprofile&u=6758562]-Azureus-[/url]
Формат: AVI
Видео: 688x384 (1.79:1), 23,976 fps, XviD 66 ~1 213 kbps avg, 0.19 bit/pixel
Аудио: 48.0 kHz, MPEG Layer 3, 2/0 (L,R) ch, ~128 kbps |MVO|
Субтитры: отсутствуют

MI
General
Complete name : D:\incarcare\rip gata\Batman Unlimited Animal Instincts.2015.BDRip.745[dragomire]_rutracker.org.avi
Format : AVI
Format/Info : Audio Video Interleave
File size : 747 MiB
Duration : 1h 17mn
Overall bit rate : 1 350 Kbps
Writing application : VirtualDubMod 1.5.10.2 (build 2540/release)
Writing library : VirtualDubMod build 2540/release
Video
ID : 0
Format : MPEG-4 Visual
Format profile : Advanced Simple@L5
Format settings, BVOP : 1
Format settings, QPel : No
Format settings, GMC : No warppoints
Format settings, Matrix : Custom
Codec ID : XVID
Codec ID/Hint : XviD
Duration : 1h 17mn
Bit rate : 1 213 Kbps
Width : 688 pixels
Height : 384 pixels
Display aspect ratio : 16:9
Frame rate : 23.976 fps
Color space : YUV
Chroma subsampling : 4:2:0
Bit depth : 8 bits
Scan type : Progressive
Compression mode : Lossy
Bits/(Pixel*Frame) : 0.191
Stream size : 671 MiB (90%)
Writing library : XviD 66
Audio
ID : 1
Format : MPEG Audio
Format version : Version 1
Format profile : Layer 3
Codec ID : 55
Codec ID/Hint : MP3
Duration : 1h 17mn
Bit rate mode : Constant
Bit rate : 128 Kbps
Channel(s) : 2 channels
Sampling rate : 48.0 KHz
Compression mode : Lossy
Stream size : 70.8 MiB (9%)
Alignment : Aligned on interleaves
Interleave, duration : 42 ms (1.00 video frame)
Interleave, preload duratio : 504 ms
Скриншоты
Скачать

Скачать торрент! Безграничный Бэтмен: Животные инстинкты / Batman Unlimited: Animal Instincts (Батч Лукич / Butch Lukic) [2015, мультфильм, боевик, приключения, BDRip] MVO

Как скачивать? · Что такое торрент? · Рейтинг и ограничения

Сайт не распространяет и не хранит электронные версии произведений, а лишь предоставляет доступ к создаваемому пользователями каталогу ссылок на торрент-файлы, которые содержат только списки хеш-сумм

[Профиль] [ЛС]
Показать сообщения:    
Ответить на тему

Текущее время: Сегодня 20:45

Часовой пояс: GMT + 4



Вы не можете начинать темы
Вы не можете отвечать на сообщения
Вы не можете редактировать свои сообщения
Вы не можете удалять свои сообщения
Вы не можете голосовать в опросах
Вы не можете прикреплять файлы к сообщениям
Вы не можете скачивать файлы