Пиноккио / Pinocchio (Энцо Д’Ало / Enzo D\'Alò) [2012, мультфильм, фэнтези, BDRip] MVO + Original Eng + rus sub

Ответить на тему
 
Автор Сообщение

user ®

Стаж: 12 лет

Сообщений: 15145

Пост Пост: #1 от 08-Май-2015 22:54

[Цитировать]

Пиноккио
Pinocchio
Страна: Бельгия, Франция, Италия, Люксембург
Жанр: мультфильм, фэнтези
Продолжительность: 01:24:10
Год выпуска: 2012-Перевод: Профессиональный (Многоголосый закадровый)
Русские субтитры: есть
Режиссёр: Энцо Д’Ало / Enzo D'Alò-Роли озвучивали: Габриеле Каприо, Mino Caprio, Марикла Аффатато, Маурицио Микели, Рокко Папалео, Паоло Руффини, Lucrezia Marricchi, Паскуале Ансельмо, Энцо Аволио, Нанни Бальдини-Описание: Однажды безоблачной ночью старый Джепетто замечтался, глядя в небеса на сверкающие звезды. Он загадал желание, чтобы вырезанный из дерева мальчик Пиноккио ожил и стал ему настоящим сыном, о котором он мечтал всю свою жизнь. И его желание, наконец, сбылось. Поучительную сказку про Пиноккио знают дети и взрослые всего мира. Маленький деревянный человечек заставил поверить людей в чудеса и доказал, что добро всегда побеждает, а мечты сбываются, нужно только сильно верить в это.-Релиз: -Качество: [url=http://***/forum/viewtopic.php?t=4999150]BDRip[/url]
Формат: AVI
Видео: 704x384 (1.83:1), 23,976 fps, XviD 66 ~1714 kbps avg, 0.26 bit/pixel
Аудио: 48 kHz, AC3 Dolby Digital, 3/2 (L,C,R,l,r) + LFE ch, ~384 kbps avg |MVO|
Аудио: 48 kHz, AC3 Dolby Digital, 3/2 (L,C,R,l,r) + LFE ch, ~384 kbps avg |ENG|
Субтитры: Russian [srt]

MI
General
Complete name : D:\incarcare\rip gata\Pinocchio.2012.BDRip.1,46.[dragomire]_rutracker.org.avi
Format : AVI
Format/Info : Audio Video Interleave
File size : 1.47 GiB
Duration : 1h 24mn
Overall bit rate : 2 496 Kbps
Writing application : VirtualDubMod 1.5.10.2 (build 2540/release)
Writing library : VirtualDubMod build 2540/release
Video
ID : 0
Format : MPEG-4 Visual
Format profile : Advanced Simple@L5
Format settings, BVOP : 1
Format settings, QPel : No
Format settings, GMC : No warppoints
Format settings, Matrix : Custom
Codec ID : XVID
Codec ID/Hint : XviD
Duration : 1h 24mn
Bit rate : 1 714 Kbps
Width : 704 pixels
Height : 384 pixels
Display aspect ratio : 1.85:1
Frame rate : 23.976 fps
Color space : YUV
Chroma subsampling : 4:2:0
Bit depth : 8 bits
Scan type : Progressive
Compression mode : Lossy
Bits/(Pixel*Frame) : 0.265
Stream size : 1.01 GiB (69%)
Writing library : XviD 66
Audio #1
ID : 1
Format : AC-3
Format/Info : Audio Coding 3
Mode extension : CM (complete main)
Format settings, Endianness : Big
Codec ID : 2000
Duration : 1h 24mn
Bit rate mode : Constant
Bit rate : 384 Kbps
Channel(s) : 6 channels
Channel positions : Front: L C R, Side: L R, LFE
Sampling rate : 48.0 KHz
Compression mode : Lossy
Stream size : 231 MiB (15%)
Alignment : Split accross interleaves
Interleave, duration : 42 ms (1.00 video frame)
Interleave, preload duratio : 500 ms
Audio #2
ID : 2
Format : AC-3
Format/Info : Audio Coding 3
Mode extension : CM (complete main)
Format settings, Endianness : Big
Codec ID : 2000
Duration : 1h 24mn
Bit rate mode : Constant
Bit rate : 384 Kbps
Channel(s) : 6 channels
Channel positions : Front: L C R, Side: L R, LFE
Sampling rate : 48.0 KHz
Compression mode : Lossy
Stream size : 231 MiB (15%)
Alignment : Split accross interleaves
Interleave, duration : 42 ms (1.00 video frame)
Interleave, preload duratio : 500 ms
Скриншоты сравнение
[url=http://***/forum/viewtopic.php?t=4577872]http://***/forum/viewtopic.php?t=4577872[/url]
http://screenshotcomparison.com/comparison/125925/picture:0
Скачать

Скачать торрент! Пиноккио / Pinocchio (Энцо Д’Ало / Enzo D\'Alò) [2012, мультфильм, фэнтези, BDRip] MVO + Original Eng + rus sub

Как скачивать? · Что такое торрент? · Рейтинг и ограничения

Сайт не распространяет и не хранит электронные версии произведений, а лишь предоставляет доступ к создаваемому пользователями каталогу ссылок на торрент-файлы, которые содержат только списки хеш-сумм

[Профиль] [ЛС]
Показать сообщения:    
Ответить на тему

Текущее время: Сегодня 11:42

Часовой пояс: GMT + 4



Вы не можете начинать темы
Вы не можете отвечать на сообщения
Вы не можете редактировать свои сообщения
Вы не можете удалять свои сообщения
Вы не можете голосовать в опросах
Вы не можете прикреплять файлы к сообщениям
Вы не можете скачивать файлы