Хозяин дома / Домовладелец / The Householder (Джеймс Айвори / James Ivory) [1963, Индия, Мелодрама, комедия, DVDRip] VO (Юлия Семыкина)

Ответить на тему
 
Автор Сообщение

user ®

Стаж: 12 лет

Сообщений: 15092

Пост Пост: #1 от 08-Май-2015 01:12

[Цитировать]

Хозяин дома / Домовладелец / The Householder
Страна: Индия
Жанр: Мелодрама, комедия
Год выпуска: 1963
Продолжительность: 01:41:07
Перевод: Одноголосый закадровый Юлия Семыкина
Cубтитры: нет
Режиссер: Джеймс Айвори / James Ivory
В ролях: Шаши Капур, Лила Найду, Дурга Кхоте, Ачала Сачдев, Пинчу Капур, Пахади Саньял, Рамеш Тхапар
Описание: Хотя молодой профессор колледжа Прем неохотно принимает на себя роль кормильца и хозяина дома, он пытается превратить хорошенькую Инду в традиционную индийскую жену. Узнав, что Инду беременна, Прем обращается к своей матери за советом и мама поселяется в их скромном доме. Похоже, пара обречена на неприятности…
Доп. информация:
Озвучка: Юлия Семыкина (Спасибо!)
Перевод: kasmevaade (Спасибо!)
Материалы: larisa_k (Спасибо!)
Сведение аудио: керелис (Спасибо!)
Сэмпл: http://multi-up.com/1047421
Качество видео: DVDRip
Формат видео: AVI
Видео: XviD MPEG-4, 624x464 (1.34:1), 23.976 fps, 2216 kbps avg
Аудио: AC3 Dolby Digital, 48 kHz, 2/0 (L,R) ch, 192 kbps
MediaInfo
General
Complete name : F:\Hozyain.Doma.1963.DVDRip.XviD.BWTorrents.avi
Format : AVI
Format/Info : Audio Video Interleave
File size : 1.71 GiB
Duration : 1h 41mn
Overall bit rate : 2 418 Kbps
Writing application : VirtualDubMod 1.5.10.3 | www.virtualdub-fr.org || (build 2550/release)
Writing library : VirtualDubMod build 2550/release
Video
ID : 0
Format : MPEG-4 Visual
Format profile : AdvancedSimple@L5
Format settings, BVOP : Yes
Format settings, QPel : No
Format settings, GMC : No warppoints
Format settings, Matrix : Default (H.263)
Muxing mode : Packed bitstream
Codec ID : XVID
Codec ID/Hint : XviD
Duration : 1h 41mn
Bit rate : 2 217 Kbps
Width : 624 pixels
Height : 464 pixels
Display aspect ratio : 4/3
Frame rate : 23.976 fps
Resolution : 24 bits
Colorimetry : 4:2:0
Scan type : Progressive
Bits/(Pixel*Frame) : 0.319
Stream size : 1.57 GiB (92%)
Writing library : XviD 1.2.1 (UTC 2008-12-04)
Audio
ID : 1
Format : AC-3
Format/Info : Audio Coding 3
Codec ID : 2000
Duration : 1h 41mn
Bit rate mode : Constant
Bit rate : 192 Kbps
Channel(s) : 2 channels
Channel positions : L R
Sampling rate : 48.0 KHz
Stream size : 139 MiB (8%)
Alignment : Split accross interleaves
Interleave, duration : 42 ms (1.00 video frame)
Interleave, preload duration : 500 ms
Скриншоты
Скачать

Скачать торрент! Хозяин дома / Домовладелец / The Householder (Джеймс Айвори / James Ivory) [1963, Индия, Мелодрама, комедия, DVDRip] VO (Юлия Семыкина)

Как скачивать? · Что такое торрент? · Рейтинг и ограничения

Сайт не распространяет и не хранит электронные версии произведений, а лишь предоставляет доступ к создаваемому пользователями каталогу ссылок на торрент-файлы, которые содержат только списки хеш-сумм

[Профиль] [ЛС]
Показать сообщения:    
Ответить на тему

Текущее время: Сегодня 12:36

Часовой пояс: GMT + 4



Вы не можете начинать темы
Вы не можете отвечать на сообщения
Вы не можете редактировать свои сообщения
Вы не можете удалять свои сообщения
Вы не можете голосовать в опросах
Вы не можете прикреплять файлы к сообщениям
Вы не можете скачивать файлы