Она стреляет метко / She Shoots Straight (Кори Юэнь / Cory Yuen) [1989 г., Гонконг, боевые искусства, боевик, драма, DVDRip] VO (Акира)

Ответить на тему
 
Автор Сообщение

user ®

Стаж: 13 лет

Сообщений: 15071

Пост Пост: #1 от 07-Май-2015 12:48

[Цитировать]

Она стреляет метко / She Shoots Straight
Страна: Гонконг
Жанр: боевые искусства, боевик, драма
Год выпуска: 1989
Продолжительность: 01:28:33
Перевод: Одноголосый (закадровый) [Акира]
Оригинальная аудиодорожка: нет
Cубтитры:нет
Режиссер: Кори Юэнь / Cory Yuen
В ролях: Саммо Хунг, Джойс Мина Годенци,(жена Саммо Хунга) Карина Лау, Агнес Аурелио, Танг Пик-Ван, Тони Леунг Ка-Фаи, Йип Винг-Чо, Кори Юэнь, Леунг Ван-Ю, Марк Хоутон, Сандра Нг
Описание:Девушка-полицейский Мина (Джойс Годенци), выходя замуж за полицейского (Тони Леунг), знала, на что шла - все его три сестры служат в полиции и не очень любят Мину, считая ее выскочкой и зазнайкой за то, что за успешно проведенную полицейскую операцию именно она получила повышение. Пытаясь остановить нападение банды вьетнамцев на ночной клуб, Мина с группой заваливает задание, но убивает брата главного злодея, который теперь начинает свою месть с атаки на ее мужа.
Релиз:

Качество: DVDRip
Контейнер: AVI
Видео: 688x368 (1.87:1), 25 fps, XviD build 50 ~1040 kbps avg, 0.16 bit/pixel
Аудио: 48 kHz, MPEG Layer 3, 2 ch, ~128.00 kbps avg

MI
Общее
Полное имя : C:\Users\Вячеслав\Downloads\Она_стреляет_метко_DVDRip_743_Некул.avi
Формат : AVI
Формат/Информация : Audio Video Interleave
Размер файла : 746 Мбайт
Продолжительность : 1 ч. 28 м.
Общий поток : 1178 Кбит/сек
Программа кодирования : VirtualDubMod 1.5.10.3 | www.virtualdub-fr.org || (build 2550/release)
Библиотека кодирования : VirtualDubMod build 2550/release
Видео
Идентификатор : 0
Формат : MPEG-4 Visual
Профиль формата : Advanced Simple@L5
Параметр BVOP формата : 2
Параметр QPel формата : Нет
Параметр GMC формата : Без точки перехода
Параметр матрицы формата : Default (MPEG)
Идентификатор кодека : XVID
Идентификатор кодека/Подсказка : XviD
Продолжительность : 1 ч. 28 м.
Битрейт : 1040 Кбит/сек
Ширина : 688 пикселей
Высота : 368 пикселей
Соотношение сторон : 1,85:1
Частота кадров : 25,000 кадров/сек
Цветовое пространство : YUV
Субдискретизация насыщенности : 4:2:0
Битовая глубина : 8 бит
Тип развёртки : Прогрессивная
Метод сжатия : С потерями
Бит/(Пиксели*Кадры) : 0.164
Размер потока : 659 Мбайт (88%)
Библиотека кодирования : XviD 1.2.1 (UTC 2008-12-04)
Аудио
Идентификатор : 1
Формат : MPEG Audio
Версия формата : Version 1
Профиль формата : Layer 3
Идентификатор кодека : 55
Идентификатор кодека/Подсказка : MP3
Продолжительность : 1 ч. 28 м.
Вид битрейта : Постоянный
Битрейт : 128 Кбит/сек
Каналы : 2 канала
Частота : 48,0 КГц
Метод сжатия : С потерями
Размер потока : 81,1 Мбайт (11%)
Выравнивание : Соединение по промежуткам
Продолжительность промежутка : 40 мс. (1,00 видеокадр)
Время предзагрузки промежутка : 504 мс.
Библиотека кодирования : LAME3.99r
Настройки программы : -m s -V 4 -q 2 -lowpass 17 -b 128
Скриншоты
Скачать

Скачать торрент! Она стреляет метко / She Shoots Straight (Кори Юэнь / Cory Yuen) [1989 г., Гонконг, боевые искусства, боевик, драма, DVDRip] VO (Акира)

Как скачивать? · Что такое торрент? · Рейтинг и ограничения

Сайт не распространяет и не хранит электронные версии произведений, а лишь предоставляет доступ к создаваемому пользователями каталогу ссылок на торрент-файлы, которые содержат только списки хеш-сумм

[Профиль] [ЛС]
Показать сообщения:    
Ответить на тему

Текущее время: Сегодня 21:54

Часовой пояс: GMT + 4



Вы не можете начинать темы
Вы не можете отвечать на сообщения
Вы не можете редактировать свои сообщения
Вы не можете удалять свои сообщения
Вы не можете голосовать в опросах
Вы не можете прикреплять файлы к сообщениям
Вы не можете скачивать файлы