Мы из будущего (Андрей Малюков) [2008, военный, Фантастика, SATRip] телеверсия

Ответить на тему
 
Автор Сообщение

user ®

Стаж: 7 лет 7 месяцев

Сообщений: 20008

Пост Пост: #1 от 07-Май-2015 00:27

[Цитировать]

Мы из будущего
Жанр: Военный, Фантастика
Год выпуска: 2008
Продолжительность: 02:42:33
Режиссёр: Андрей Малюков
В ролях: Данила Козловский, Владимир Яглыч, Андрей Терентьев, Дмитрий Волкострелов, Екатерина Климова, Борис Галкин, Даниил Страхов, Сергей Маховиков, Игорь Черневич, Ральф Шиха, Зоя Буряк, Сергей Мухин, Анатолий Пашинин, Николай Горбунов, Тамара Спиричева, Лидия Доротенко
Описание: Четверо ребят, наших современников, связаны общим делом: они ищут и продают боевые трофеи времен Второй мировой войны, зарабатывая тем самым неплохие деньги. Их называют "черными копателями". Лидер в этой компании – Борман. Он выбирает место для раскопок, читает много книг, написанных участниками военных событий. Череп - скинхед, мечтающий найти немецкое оружие. Спирт - современный музыкант, ему просто нужны деньги, чтобы заниматься любимым делом, а Чуха - компьютерщик, подсевший на виртуальные игры. Однажды на очередном месте раскопок происходит нечто странное: в блиндаже времен войны ребята обнаруживают солдатские книжки. С фотографий на них глядят… они сами! Пытаясь прийти в себя и надеясь, что увиденное примерещилось им в результате теплового удара, парни отправляются купаться. Таинственное озеро перемещает их в далекое прошлое, на 65 лет назад. Молодые люди выныривают и оказываются в эпицентре боевых действий 1942 года. Им предстоит пережить немало приключений, найти и потерять любовь, проверить свою дружбу, узнать настоящую цену жизни и по-новому взглянуть на трагические страницы в истории своей родины...
Доп. информация: Исходник DVB. Телеверсия. Длиннее обычной киноверсии на ~ 47 минут. На DVD не выпускалась
Сэмпл: http://multi-up.com/1046981
Формат видео: AVI
Качество видео: SATRip (DVB)
Видео: XviD, 720x384, 25fps, 2352kbps
Аудио: AC3 Dolby Digital, 2ch, 48000Hz, 192kbps
MediaInfo
General
Complete name : My.Iz.Buduschego.1.2008.O.SATRip.2800.TV.MediaClub.CurHaJI.avi
Format : AVI
Format/Info : Audio Video Interleave
Format profile : OpenDML
File size : 2.90 GiB
Duration : 2h 42mn
Overall bit rate : 2 555 Kbps
Movie name : My.Iz.Buduschego.1.2008.O.SATRip.2800.TV.MediaClub.CurHaJI
Writing library : VirtualDub build 35491/release
Video
ID : 0
Format : MPEG-4 Visual
Format profile : Advanced Simple@L5
Format settings, BVOP : 1
Format settings, QPel : No
Format settings, GMC : No warppoints
Format settings, Matrix : Custom
Codec ID : XVID
Codec ID/Hint : XviD
Duration : 2h 42mn
Bit rate : 2 352 Kbps
Width : 720 pixels
Height : 384 pixels
Display aspect ratio : 1.85:1
Frame rate : 25.000 fps
Color space : YUV
Chroma subsampling : 4:2:0
Bit depth : 8 bits
Scan type : Progressive
Compression mode : Lossy
Bits/(Pixel*Frame) : 0.340
Stream size : 2.67 GiB (92%)
Writing library : XviD 1.2.1 (UTC 2008-12-04)
Audio
ID : 1
Format : AC-3
Format/Info : Audio Coding 3
Mode extension : CM (complete main)
Format settings, Endianness : Big
Codec ID : 2000
Duration : 2h 42mn
Bit rate mode : Constant
Bit rate : 192 Kbps
Channel(s) : 2 channels
Channel positions : Front: L R
Sampling rate : 48.0 KHz
Bit depth : 16 bits
Compression mode : Lossy
Stream size : 223 MiB (8%)
Alignment : Split accross interleaves
Interleave, duration : 40 ms (1.00 video frame)
Interleave, preload duration : 500 ms
Скриншоты
Скачать

Скачать торрент!

Как скачивать? · Что такое торрент? · Рейтинг и ограничения

Сайт не распространяет и не хранит электронные версии произведений, а лишь предоставляет доступ к создаваемому пользователями каталогу ссылок на торрент-файлы, которые содержат только списки хеш-сумм

[Профиль] [ЛС]
Показать сообщения:    
Ответить на тему

Текущее время: Сегодня 11:48

Часовой пояс: GMT + 4



Вы не можете начинать темы
Вы не можете отвечать на сообщения
Вы не можете редактировать свои сообщения
Вы не можете удалять свои сообщения
Вы не можете голосовать в опросах
Вы не можете прикреплять файлы к сообщениям
Вы не можете скачивать файлы