Брат (Алексей Балабанов) [1997, Криминальная драма, боевик, SATRip]

Ответить на тему
 
Автор Сообщение

user ®

Стаж: 7 лет 7 месяцев

Сообщений: 20008

Пост Пост: #1 от 06-Май-2015 21:21

[Цитировать]

Брат
Жанр: Криминальная драма, боевик
Год выпуска: 1997
Продолжительность: 01:34:28
Режиссёр: Алексей Балабанов
В ролях: Сергей Бодров (Данила Багров) , Виктор Сухоруков (Виктор Багров) , Светлана Письмиченко (Света (водитель трамвая)) , Мария Жукова (Кэт) , Юрий Кузнецов (Гофман-немец) , Ирина Ракшина (Зинка) , Сергей Мурзин (Круглый) , Анатолий Журавлёв (нервный бандит) , Андрей Федорцов (Стёпа (режиссер)) , Вячеслав Бутусов (камео) , Игорь Шибанов (милиционер) , Сергей Дебижев (режиссёр клипа) , Алексей Севастьянов (бандит, подручный Круглого) , Ринат Ибрагимов (бандит по кличке «Шиша») , Владимир Ермилов (Павел Евграфович, муж Светы)
Описание: Демобилизированный из армии Данила Багров возвращается в родной город. Скучная, однообразная жизнь провинции не может устроить крепкого русского парня, и он решает поехать в Питер, испытать себя. Тем более, что там, по слухам, уже давно процветает его старший брат. Но новая русская жизнь северной столицы оказывается слишком неожиданной, а родной брат Данилы зарабатывает на жизнь заказными убийствами. Даниле предстоит многое узнать... и со многими разобраться...
Доп. информация: Собственный рип из [url=http://***/forum/viewtopic.php?t=4596477]http://***/forum/viewtopic.php?t=4596477[/url]
Сэмпл: http://multi-up.com/1047087
Качество видео: SATRip
Формат видео: AVI
Видео: 672x400 (1.68:1), 25 fps, XviD 1.2.1, 963 kbps avg, 0.14 bit/pixel
Аудио: 48 kHz, Lame MP3, 2ch, 128 kbps
MediaInfo
Формат : AVI
Формат/Информация : Audio Video Interleave
Размер файла : 744 Мбайт
Продолжительность : 1 ч. 34 м.
Общий поток : 1101 Кбит/сек
Программа кодирования : VirtualDubMod 1.5.10.3 | www.virtualdub-fr.org || (build 2550/release)
Библиотека кодирования : VirtualDubMod build 2550/release
Видео
Идентификатор : 0
Формат : MPEG-4 Visual
Профиль формата : Advanced Simple@L5
Параметр BVOP формата : 2
Параметр QPel формата : Нет
Параметр GMC формата : Без точки перехода
Параметр матрицы формата : Default (H.263)
Идентификатор кодека : XVID
Идентификатор кодека/Подсказка : XviD
Продолжительность : 1 ч. 34 м.
Битрейт : 963 Кбит/сек
Ширина : 672 пикселя
Высота : 400 пикселей
Соотношение сторон : 1,680
Частота кадров : 25,000 кадров/сек
Цветовое пространство : YUV
Субдискретизация насыщенности : 4:2:0
Битовая глубина : 8 бит
Тип развёртки : Прогрессивная
Метод сжатия : С потерями
Бит/(Пиксели*Кадры) : 0.143
Размер потока : 651 Мбайт (87%)
Библиотека кодирования : XviD 1.2.1 (UTC 2008-12-04)
Аудио
Идентификатор : 1
Формат : MPEG Audio
Версия формата : Version 1
Профиль формата : Layer 3
Режим : Joint stereo
Расширение режима : MS Stereo
Идентификатор кодека : 55
Идентификатор кодека/Подсказка : MP3
Продолжительность : 1 ч. 34 м.
Вид битрейта : Постоянный
Битрейт : 128 Кбит/сек
Каналы : 2 канала
Частота : 48,0 КГц
Метод сжатия : С потерями
Размер потока : 86,5 Мбайт (12%)
Выравнивание : Соединение по промежуткам
Продолжительность промежутка : 40 мс. (1,00 видеокадр)
Время предзагрузки промежутка : 504 мс.
Библиотека кодирования : LAME3.99r
Настройки программы : -m j -V 4 -q 3 -lowpass 17 -b 128
Скриншот c названием фильма Скриншоты
Скачать

Скачать торрент!

Как скачивать? · Что такое торрент? · Рейтинг и ограничения

Сайт не распространяет и не хранит электронные версии произведений, а лишь предоставляет доступ к создаваемому пользователями каталогу ссылок на торрент-файлы, которые содержат только списки хеш-сумм

[Профиль] [ЛС]
Показать сообщения:    
Ответить на тему

Текущее время: Сегодня 22:03

Часовой пояс: GMT + 4



Вы не можете начинать темы
Вы не можете отвечать на сообщения
Вы не можете редактировать свои сообщения
Вы не можете удалять свои сообщения
Вы не можете голосовать в опросах
Вы не можете прикреплять файлы к сообщениям
Вы не можете скачивать файлы