Новая игра смерти / The New Game Of Death / Yung chun ta hsiung (Линь Бин / Lin Bin) [1975, Тайвань, боевые искусства, DVDRip] VO (Виктор Береговых)

Ответить на тему
 
Автор Сообщение

user ®

Стаж: 13 лет

Сообщений: 15071

Пост Пост: #1 от 06-Май-2015 12:03

[Цитировать]

Новая игра смерти / The New Game Of Death / Yung chun ta hsiung
Страна: Тайвань
Жанр: боевые искусства
Год выпуска: 1975
Продолжительность: 01:26:29
Перевод: Одноголосый закадровый (Виктор Береговых)
Cубтитры: нет
Режиссер: Линь Бин / Lin Bin
В ролях: Брюс Лай, Лун Фэй, Шань Мао, Чой Ван, Ли Кеун, Ма Чеун...
Описание: Молодой парень по имени Хон Хун становится свидетелем убийства человека по имени Лау.Жена Лау просит Хон Хуна предупредить ее сына об опасности и передать ему коробку с книгами.Хон Хун решает помочь испуганной женщине и берется доставить коробку по адресу.По пути его преследуют множество незнакомцев и Хон Хун решает открыть коробку,которая оказывается забита под завязку деньгами мафии. Дальше Хон Хуну предстоит спасти свою невесту и пройти башню семи звезд, каждый этаж которой охраняет мастер боевых искусств.(В.Береговых)
Отличие: [url=http://***/forum/viewtopic.php?t=4389002]http://***/forum/viewtopic.php?t=4389002[/url] - фильм озвучен заново на другом микрофоне.
Сэмпл: https://www.sendspace.com/file/y3wcpz
Качество видео: DVDRip
Формат видео: AVI
Видео: XviD, 640x288 (2.222), 29.970 fps, 932 kbps avg, 0.169 bit/pixel
Аудио: AC3, 48.0 KHz, 192 Kbps, 2 channels
MediaInfo
Format : AVI
Format/Info : Audio Video Interleave
File size : 700 MiB
Duration : 1h 26mn
Overall bit rate : 1 132 Kbps
Writing application : VirtualDubMod 1.5.4.1 (build 2178/release)
Writing library : VirtualDubMod build 2178/release
Video
ID : 0
Format : MPEG-4 Visual
Format profile : AdvancedSimple@L5
Format settings, BVOP : Yes
Format settings, QPel : No
Format settings, GMC : No warppoints
Format settings, Matrix : Custom
Codec ID : XVID
Codec ID/Hint : XviD
Duration : 1h 26mn
Bit rate : 932 Kbps
Width : 640 pixels
Height : 288 pixels
Display aspect ratio : 2.222
Frame rate : 29.970 fps
Resolution : 24 bits
Colorimetry : 4:2:0
Scan type : Progressive
Bits/(Pixel*Frame) : 0.169
Stream size : 577 MiB (82%)
Writing library : XviD 1.2.0.dev47 (UTC 2006-11-01)
Audio
ID : 1
Format : AC-3
Format/Info : Audio Coding 3
Codec ID : 2000
Duration : 1h 26mn
Bit rate mode : Constant
Bit rate : 192 Kbps
Channel(s) : 2 channels
Channel positions : L R
Sampling rate : 48.0 KHz
Stream size : 119 MiB (17%)
Alignment : Split accross interleaves
Interleave, duration : 96 ms (2.88 video frames)
Interleave, preload duration : 96 ms
Language : Russian
Скриншот c названием фильма Скриншоты
Скачать

Скачать торрент! Новая игра смерти / The New Game Of Death / Yung chun ta hsiung (Линь Бин / Lin Bin) [1975, Тайвань, боевые искусства, DVDRip] VO (Виктор Береговых)

Как скачивать? · Что такое торрент? · Рейтинг и ограничения

Сайт не распространяет и не хранит электронные версии произведений, а лишь предоставляет доступ к создаваемому пользователями каталогу ссылок на торрент-файлы, которые содержат только списки хеш-сумм

[Профиль] [ЛС]
Показать сообщения:    
Ответить на тему

Текущее время: Сегодня 17:26

Часовой пояс: GMT + 4



Вы не можете начинать темы
Вы не можете отвечать на сообщения
Вы не можете редактировать свои сообщения
Вы не можете удалять свои сообщения
Вы не можете голосовать в опросах
Вы не можете прикреплять файлы к сообщениям
Вы не можете скачивать файлы