Аферисты Дик и Джейн / Fun with Dick and Jane (Дин Паризо / Dean Parisot) [2005, США, комедия, криминал, WEB-DL 1080p] [Open matte] Dub (iTunes) + DVO (Tycoon) + DVO (Гланц и Королева) + Sub Rus, Eng + Original Eng

Ответить на тему
 
Автор Сообщение

user ®

Стаж: 7 лет 7 месяцев

Сообщений: 20008

Пост Пост: #1 от 05-Май-2015 20:36

[Цитировать]

Аферисты Дик и Джейн / Fun with Dick and Jane / Open matte
Страна: США
Жанр: комедия, криминал
Год выпуска: 2005
Продолжительность: 1:30:18
Перевод 1: Профессиональный (дублированный) iTunes
Перевод 2: Профессиональный (двухголосый закадровый) Tycoon
Перевод 3: Профессиональный (двухголосый закадровый) Гланц и Королева
Cубтитры 1: русские
Cубтитры 2: английские
Оригинальная аудиодорожка: английский
Дополнительно: разбитие на главы
Режиссер: Дин Паризо / Dean Parisot
В ролях: Джим Керри, Теа Леони, Алек Болдуин, Ричард Дженкинс, Энджи Хармон, Джон Майкл Хиггинс, Ричард Берджи, Карлос Джекотт, Аарон Майкл Дрозин, Глория Гараюа
Описание: Дик Харпер и его молодая жена Джейн привыкли жить красиво. Но в тот момент, когда они затевают строительство бассейна, Дика неожиданно увольняют, оставив его с непогашенной задолженностью за дом в $70 тыс.
Понимая, что долго скрывать от соседей бедственность своего положения им не удастся, парочка начинает промышлять мелким грабежом, постепенно входя во вкус.
Сэмпл: http://sendfile.su/1114813
Тип релиза: WEB-DL 1080p
Контейнер: MKV
Видео: MPEG4/AVC, 1920x1080, 4 995 Kbps, 23.976 fps
Аудио 1: Russian: 48 kHz, AC3, 5.1, 384 kbps (Дубляж, iTunes)
Аудио 2: Russian: 48 kHz, AC3, 5.1, 448 kbps (Двухголосый, Tycoon)
Аудио 3: Russian: 48 kHz, AC3, 5.1, 448 kbps (Двухголосый, Гланц и Королева)
Аудио 4: English: 48 kHz, AC3, 5.1, 384 kbps (Оригинал)
Формат субтитров: softsub (SRT)
MediaInfo
General
Unique ID : 193844412813897117118702747222612385546 (0x91D5136F6E356264AAEE8E32FAEC1F0A)
Complete name : D:\Video\HD\Fun with Dick and Jane (2005) 1080p WEB-DL by TCG.mkv
Format : Matroska
Format version : Version 4 / Version 2
File size : 4.29 GiB
Duration : 1h 30mn
Overall bit rate : 6 794 Kbps
Movie name : Fun with Dick and Jane (2005) 1080p WEB-DL by TCG
Encoded date : UTC 2015-05-04 17:52:10
Writing application : mkvmerge v7.8.0 ('River Man') 64bit built on Mar 27 2015 16:31:37
Writing library : libebml v1.3.1 + libmatroska v1.4.2
DURATION : 01:23:12.271000000
NUMBER_OF_FRAMES : 1169
NUMBER_OF_BYTES : 45003
_STATISTICS_WRITING_APP : mkvmerge v7.8.0 ('River Man') 64bit built on Mar 27 2015 16:31:37
_STATISTICS_WRITING_DATE_UT : 2015-05-04 17:52:10
_STATISTICS_TAGS : BPS DURATION NUMBER_OF_FRAMES NUMBER_OF_BYTES
Video
ID : 1
Format : AVC
Format/Info : Advanced Video Codec
Format profile : High@L4.0
Format settings, CABAC : Yes
Format settings, ReFrames : 4 frames
Codec ID : V_MPEG4/ISO/AVC
Duration : 1h 30mn
Bit rate : 4 995 Kbps
Width : 1 920 pixels
Height : 1 080 pixels
Display aspect ratio : 16:9
Frame rate mode : Constant
Frame rate : 23.976 fps
Color space : YUV
Chroma subsampling : 4:2:0
Bit depth : 8 bits
Scan type : Progressive
Bits/(Pixel*Frame) : 0.100
Stream size : 3.15 GiB (74%)
Title : Fun with Dick and Jane (2005) 1080p WEB-DL by TCG
Default : No
Forced : No
Color primaries : BT.709
Transfer characteristics : BT.709
Matrix coefficients : BT.709
Color range : Limited
Audio #1
ID : 2
Format : AC-3
Format/Info : Audio Coding 3
Mode extension : CM (complete main)
Format settings, Endianness : Big
Codec ID : A_AC3
Duration : 1h 30mn
Bit rate mode : Constant
Bit rate : 384 Kbps
Channel(s) : 6 channels
Channel positions : Front: L C R, Side: L R, LFE
Sampling rate : 48.0 KHz
Bit depth : 16 bits
Compression mode : Lossy
Stream size : 248 MiB (6%)
Title : Дубляж (iTunes)
Language : Russian
Default : Yes
Forced : Yes
Audio #2
ID : 3
Format : AC-3
Format/Info : Audio Coding 3
Mode extension : CM (complete main)
Format settings, Endianness : Big
Codec ID : A_AC3
Duration : 1h 30mn
Bit rate mode : Constant
Bit rate : 448 Kbps
Channel(s) : 6 channels
Channel positions : Front: L C R, Side: L R, LFE
Sampling rate : 48.0 KHz
Bit depth : 16 bits
Compression mode : Lossy
Stream size : 289 MiB (7%)
Title : Двухголосый (Tycoon)
Language : Russian
Default : No
Forced : No
Audio #3
ID : 4
Format : AC-3
Format/Info : Audio Coding 3
Mode extension : CM (complete main)
Format settings, Endianness : Big
Codec ID : A_AC3
Duration : 1h 30mn
Bit rate mode : Constant
Bit rate : 448 Kbps
Channel(s) : 6 channels
Channel positions : Front: L C R, Side: L R, LFE
Sampling rate : 48.0 KHz
Bit depth : 16 bits
Compression mode : Lossy
Stream size : 289 MiB (7%)
Title : Двухголосый (Гланц и Королева)
Language : Russian
Default : No
Forced : No
Audio #4
ID : 5
Format : AC-3
Format/Info : Audio Coding 3
Mode extension : CM (complete main)
Format settings, Endianness : Big
Codec ID : A_AC3
Duration : 1h 30mn
Bit rate mode : Constant
Bit rate : 384 Kbps
Channel(s) : 6 channels
Channel positions : Front: L C R, Side: L R, LFE
Sampling rate : 48.0 KHz
Bit depth : 16 bits
Compression mode : Lossy
Stream size : 248 MiB (6%)
Title : Оригинал
Language : English
Default : No
Forced : No
Text #1
ID : 6
Format : UTF-8
Codec ID : S_TEXT/UTF8
Codec ID/Info : UTF-8 Plain Text
Title : Русские
Language : Russian
Default : No
Forced : No
Text #2
ID : 7
Format : UTF-8
Codec ID : S_TEXT/UTF8
Codec ID/Info : UTF-8 Plain Text
Title : Английские
Language : English
Default : No
Forced : No
Menu
00:00:00.000 : en:1
00:07:52.000 : en:2
00:14:11.000 : en:3
00:21:28.000 : en:4
00:27:53.000 : en:5
00:33:07.000 : en:6
00:43:40.000 : en:7
00:50:05.000 : en:8
00:57:40.000 : en:9
00:59:56.000 : en:10
01:04:27.000 : en:11
01:08:24.000 : en:12
01:13:41.000 : en:13
01:16:57.000 : en:14
01:20:29.000 : en:15
01:23:45.000 : en:16
Скриншоты
Скачать

Скачать торрент!

Как скачивать? · Что такое торрент? · Рейтинг и ограничения

Сайт не распространяет и не хранит электронные версии произведений, а лишь предоставляет доступ к создаваемому пользователями каталогу ссылок на торрент-файлы, которые содержат только списки хеш-сумм

[Профиль] [ЛС]
Показать сообщения:    
Ответить на тему

Текущее время: Сегодня 00:07

Часовой пояс: GMT + 4



Вы не можете начинать темы
Вы не можете отвечать на сообщения
Вы не можете редактировать свои сообщения
Вы не можете удалять свои сообщения
Вы не можете голосовать в опросах
Вы не можете прикреплять файлы к сообщениям
Вы не можете скачивать файлы