Добро пожаловать в ПОП / Pop Redemption (Мартин Ле Галь / Martin Le Gall) [2013, Франция, комедия, музыка, BDRip 720p] MVO (R5) + Original (Fre) + Sub (Eng, Fre)

Ответить на тему
 
Автор Сообщение

user ®

Стаж: 7 лет 7 месяцев

Сообщений: 20008

Пост Пост: #1 от 05-Май-2015 17:30

[Цитировать]

Добро пожаловать в ПОП / Pop Redemption Страна: Франция
Жанр: комедия, музыка
Год выпуска: 2013
Продолжительность: 01:34:32
Перевод: Профессиональный (многоголосый закадровый) R5
Cубтитры: английские, французские
Оригинальная аудиодорожка: французский
Режиссер: Мартин Ле Галь / Martin Le Gall
В ролях: Жюльен Доре, Грегори Гадебуа, Джонатан Коэн, Ясин Белусс, Одри Флеро, Александр Астье, Делия Эпина-Диэф, Арсен Моска, Кристоф Курочкин, Винсент Ленардт
Описание:
Рокеров со стажем, играющих в стиле блэк-метал, приглашают принять участие в крупном рок-фестивале, проходящем во Франции. Не то чтобы их группа была очень популярной, просто во всей Франции металлистов раз, два и обчелся. Парни решают воспользоваться шансом и тряхнуть стариной. Но в дороге с ним происходит казус — по нелепой случайности в аварии погибает человек. Парни уверены, что теперь им светит тюрьма. Они решают скрыться от полиции, чтобы успеть выступить на фестивале своей мечты. Однако туда еще надо добраться. Для этого им придется отложить в стороны свои рокерские прикиды и резко сменить имидж, выдавая себя за группу хиппи, поющих про любовь и мир во всем мире. А это для брутальных рокеров будет сделать ой как не просто!
- || -Тип релиза: BDRip 720p (рип от riverhd@EbP)

Контейнер: MKV
Видео: AVC (x264), 1280x538 (2,40:1) at 24,000 fps, 8000 Кbps, 0.484 bpp
Аудио 1: AC3; 448 Kbps; CBR; 6 ch; 48 khz | MVO |
Аудио 2: AC3; 640 Kbps; CBR; 6 ch; 48 khz | Французский |
Формат субтитров: softsub (SRT); softsub (PGS)
Скриншоты || x264 Info || MediaInfo || Notes
MediaInfo
General
Unique ID                                : 185541190305996193453030614883152753983 (0x8B95EEF572FBCFC7812611CB49BCF53F)
Complete name                            : Добро пожаловать в ПОП.2013.MVO.720p.BluRay.x264-EbP.mkv
Format                                   : Matroska
Format version                           : Version 4 / Version 2
File size                                : 6.01 GiB
Duration                                 : 1h 34mn
Overall bit rate                         : 9 097 Kbps
Movie name                               : Pop Redemption [2013] [720p] MVO
Encoded date                             : UTC 2015-04-27 13:18:34
Writing application                      : mkvmerge v7.8.0 ('River Man') 32bit built on Mar 27 2015 16:18:02
Writing library                          : libebml v1.3.1 + libmatroska v1.4.2
Video
ID                                       : 1
Format                                   : AVC
Format/Info                              : Advanced Video Codec
Format profile                           : High@L4.1
Format settings, CABAC                   : Yes
Format settings, ReFrames                : 12 frames
Codec ID                                 : V_MPEG4/ISO/AVC
Duration                                 : 1h 34mn
Bit rate                                 : 8 000 Kbps
Width                                    : 1 280 pixels
Height                                   : 538 pixels
Display aspect ratio                     : 2.40:1
Frame rate mode                          : Constant
Frame rate                               : 24.000 fps
Color space                              : YUV
Chroma subsampling                       : 4:2:0
Bit depth                                : 8 bits
Scan type                                : Progressive
Bits/(Pixel*Frame)                       : 0.484
Stream size                              : 5.17 GiB (86%)
Title                                    : profile.php?mode=viewprofile&u=22488948
Writing library                          : x264 core 133 r2334 a3ac64b
Encoding settings                        : cabac=1 / ref=12 / deblock=1:-3:-3 / analyse=0x3:0x113 / me=umh / subme=9 / psy=1 / psy_rd=1.05:0.00 / mixed_ref=1 / me_range=16 / chroma_me=1 / trellis=2 / 8x8dct=1 / cqm=0 / deadzone=21,11 / fast_pskip=0 / chroma_qp_offset=-2 / threads=3 / lookahead_threads=1 / sliced_threads=0 / nr=0 / decimate=0 / interlaced=0 / bluray_compat=0 / constrained_intra=0 / bframes=10 / b_pyramid=2 / b_adapt=2 / b_bias=0 / direct=3 / weightb=1 / open_gop=0 / weightp=2 / keyint=250 / keyint_min=24 / scenecut=40 / intra_refresh=0 / rc=2pass / mbtree=0 / bitrate=8000 / ratetol=1.0 / qcomp=0.60 / qpmin=0 / qpmax=69 / qpstep=4 / cplxblur=20.0 / qblur=0.5 / ip_ratio=1.40 / pb_ratio=1.30 / aq=1:0.60
Language                                 : French
Default                                  : Yes
Forced                                   : No
Audio #1
ID                                       : 2
Format                                   : AC-3
Format/Info                              : Audio Coding 3
Mode extension                           : CM (complete main)
Format settings, Endianness              : Big
Codec ID                                 : A_AC3
Duration                                 : 1h 34mn
Bit rate mode                            : Constant
Bit rate                                 : 448 Kbps
Channel(s)                               : 6 channels
Channel positions                        : Front: L C R, Side: L R, LFE
Sampling rate                            : 48.0 KHz
Bit depth                                : 16 bits
Compression mode                         : Lossy
Stream size                              : 303 MiB (5%)
Title                                    : P, MVO [R5]
Language                                 : Russian
Default                                  : Yes
Forced                                   : No
Audio #2
ID                                       : 3
Format                                   : AC-3
Format/Info                              : Audio Coding 3
Mode extension                           : CM (complete main)
Format settings, Endianness              : Big
Codec ID                                 : A_AC3
Duration                                 : 1h 34mn
Bit rate mode                            : Constant
Bit rate                                 : 640 Kbps
Channel(s)                               : 6 channels
Channel positions                        : Front: L C R, Side: L R, LFE
Sampling rate                            : 48.0 KHz
Bit depth                                : 16 bits
Compression mode                         : Lossy
Stream size                              : 433 MiB (7%)
Language                                 : French
Default                                  : No
Forced                                   : No
Text #1
ID                                       : 4
Format                                   : UTF-8
Codec ID                                 : S_TEXT/UTF8
Codec ID/Info                            : UTF-8 Plain Text
Language                                 : English
Default                                  : No
Forced                                   : No
Text #2
ID                                       : 5
Format                                   : PGS
Muxing mode                              : zlib
Codec ID                                 : S_HDMV/PGS
Codec ID/Info                            : The same subtitle format used on BDs/HD-DVDs
Language                                 : French
Default                                  : No
Forced                                   : No
Menu
00:00:00.000                             : en:00:00:00.000
00:07:15.250                             : en:00:07:15.250
00:14:21.292                             : en:00:14:21.292
00:23:43.167                             : en:00:23:43.167
00:32:37.500                             : en:00:32:37.500
00:41:20.875                             : en:00:41:20.875
00:51:55.250                             : en:00:51:55.250
00:57:52.875                             : en:00:57:52.875
01:07:35.667                             : en:01:07:35.667
01:14:58.667                             : en:01:14:58.667
01:20:52.208                             : en:01:20:52.208
01:27:48.167                             : en:01:27:48.167
x264 Infox264 [info]: frame I:1119 Avg QP:13.70 size:173650
x264 [info]: frame P:31102 Avg QP:15.74 size: 73169
x264 [info]: frame B:103908 Avg QP:17.58 size: 30792
x264 [info]: consecutive B-frames: 2.4% 2.8% 9.3% 26.6% 17.2% 35.7% 3.0% 0.7% 0.9% 0.7% 0.7% Цитата: Аудио дорожка 1 взята с этой [url=http://***/forum/viewtopic.php?t=4882214]раздачи[/url], thx: vlaa8
Скачать

Скачать торрент!

Как скачивать? · Что такое торрент? · Рейтинг и ограничения

Сайт не распространяет и не хранит электронные версии произведений, а лишь предоставляет доступ к создаваемому пользователями каталогу ссылок на торрент-файлы, которые содержат только списки хеш-сумм

[Профиль] [ЛС]
Показать сообщения:    
Ответить на тему

Текущее время: Сегодня 10:50

Часовой пояс: GMT + 4



Вы не можете начинать темы
Вы не можете отвечать на сообщения
Вы не можете редактировать свои сообщения
Вы не можете удалять свои сообщения
Вы не можете голосовать в опросах
Вы не можете прикреплять файлы к сообщениям
Вы не можете скачивать файлы