Безумная миссия счастливых звезд / Lucky Stars go places / Zui jia fu xing (Эрик Цан / Eric Tsang) [1986, Гонконг, боевик, комедия, DVDRip] AVO (А. Дольский)

Ответить на тему
 
Автор Сообщение

user ®

Стаж: 13 лет

Сообщений: 15071

Пост Пост: #1 от 05-Май-2015 14:24

[Цитировать]

Безумная миссия счастливых звезд / Lucky Stars go places / Zui jia fu xing
Страна: Гонконг
Жанр: боевик, комедия
Год выпуска: 1986
Продолжительность: 01:39:49
Перевод: Авторский (одноголосый закадровый) [Дольский Андрей]
Оригинальная аудиодорожка: нет
Cубтитры:нет
Режиссер: Эрик Цан / Eric Tsang
В ролях:Саммо Хунг, Алан Там, Карл Мака, Сильвия Чанг, Энди Лау, Билли Лау, Кент Ченг, Мария Тунг, Полин Вонг, Тецуя Мацуи, Энтони Чан, Альфред Чеунг, Андерс Нелссон, Барри Вонг, Боло Юнг, Вонг Джинг
Описание:Две преступные группировки готовят большую сделку, касающуюся продажи краденных бриллиантов, а полиция, недолго думая, решает помешать ей банальным путем — выкрав эти драгоценности, для чего вербует Чайника, дает ему в помощники пятерых полицейских-неудачников, девушку-инструктора и три дня на подготовку.
Все идет насмарку, когда Чайнику начинает мешать Болди, уверенный, что тот — тайный любовник его жены, с которой Чайник на самом деле знаком еще с младых ногтей.
Релиз:

Качество: DVDRip
Контейнер: AVI
Видео: 656x368 (1.78:1), 25 fps, XviD build 73 ~1838 kbps avg, 0.30 bit/pixel
Аудио: 48 kHz, AC3 Dolby Digital, 2/0 (L,R) ch, ~192 kbps

MI
Общее
Полное имя : C:\Users\Вячеслав\Downloads\Безумная миссия счастливых звезд_DVDRip_Некул.avi
Формат : AVI
Формат/Информация : Audio Video Interleave
Профиль формата : OpenDML
Размер файла : 1,42 Гбайт
Продолжительность : 1 ч. 39 м.
Общий поток : 2038 Кбит/сек
Дата записи : -1
Программа кодирования : XviD4PSP 7.0 / 55.48.100
Примечание : DVD > AVI / MPEG2 > XVID CBR 2400kbps HQ / AC3 > COPY
Видео
Идентификатор : 0
Формат : MPEG-4 Visual
Профиль формата : Advanced Simple@L5
Параметр BVOP формата : 1
Параметр QPel формата : Нет
Параметр GMC формата : Без точки перехода
Параметр матрицы формата : Default (H.263)
Идентификатор кодека : XVID
Идентификатор кодека/Подсказка : XviD
Продолжительность : 1 ч. 39 м.
Битрейт : 1833 Кбит/сек
Ширина : 656 пикселей
Высота : 368 пикселей
Соотношение сторон : 16:9
Частота кадров : 25,000 кадров/сек
Цветовое пространство : YUV
Субдискретизация насыщенности : 4:2:0
Битовая глубина : 8 бит
Тип развёртки : Чересстрочная
Порядок развёртки : Верхнее поле первое
Метод сжатия : С потерями
Бит/(Пиксели*Кадры) : 0.304
Размер потока : 1,28 Гбайт (90%)
Библиотека кодирования : XviD 73
Аудио
Идентификатор : 1
Формат : AC-3
Формат/Информация : Audio Coding 3
Профиль формата : Dolby Digital
Расширение режима : CM (complete main)
Параметр Endianness формата : Big
Идентификатор кодека : 2000
Продолжительность : 1 ч. 39 м.
Вид битрейта : Постоянный
Битрейт : 192 Кбит/сек
Каналы : 2 канала
Расположение каналов : Front: L R
Частота : 48,0 КГц
Битовая глубина : 16 бит
Метод сжатия : С потерями
Размер потока : 137 Мбайт (9%)
Выравнивание : Соединение по промежуткам
Продолжительность промежутка : 32 мс. (0,80 видеокадр)
Скриншоты
Скачать

Скачать торрент! Безумная миссия счастливых звезд / Lucky Stars go places / Zui jia fu xing (Эрик Цан / Eric Tsang) [1986, Гонконг, боевик, комедия, DVDRip] AVO (А. Дольский)

Как скачивать? · Что такое торрент? · Рейтинг и ограничения

Сайт не распространяет и не хранит электронные версии произведений, а лишь предоставляет доступ к создаваемому пользователями каталогу ссылок на торрент-файлы, которые содержат только списки хеш-сумм

[Профиль] [ЛС]
Показать сообщения:    
Ответить на тему

Текущее время: Сегодня 21:39

Часовой пояс: GMT + 4



Вы не можете начинать темы
Вы не можете отвечать на сообщения
Вы не можете редактировать свои сообщения
Вы не можете удалять свои сообщения
Вы не можете голосовать в опросах
Вы не можете прикреплять файлы к сообщениям
Вы не можете скачивать файлы