Дух Рождества / Воин Маджонга / Fat Choi Spirit / Mahjong Warrior (Джонни То / Вай Ка-Фай, Johnnie To / Wai Ka-Fai) [2002, Китай, Комедия, DVDRip] VO (Adrenalin28)

Ответить на тему
 
Автор Сообщение

user ®

Стаж: 13 лет

Сообщений: 15071

Пост Пост: #1 от 05-Май-2015 14:24

[Цитировать]

Дух Рождества (Воин Маджонга) / Fat Choi Spirit (Mahjong Warrior)
Страна: Китай
Жанр: Комедия
Год выпуска: 2002
Продолжительность: 01:36:36
Перевод: Одноголосый закадровый Adrenalin28
Cубтитры: нет
Режиссер: Джонни То / Вай Ка-Фай, Johnnie To / Wai Ka-Fai
В ролях: Энди Лау, Гиги Леунг, Лау Чинг-ван, Лоуис Коо, Черри Йинг, Вонг Тин-лам, Бонни Вонг Ман-вай
Описание: История о мужчине, Энди, который посвятил свою жизнь популярной в Китае настольной игре - маджонгу. Он невероятно удачлив и даже получил негласное звание среди любителей игры - Воин Маджонга. Но чего стоит его удача за игровым столом и так ли уж легко её удержать, особенно когда она нужна, чтобы помочь своим родным или даже защитить любовь?
Доп. информация: Перевод (heilage) и озвучание (Adrenalin28) были сделаны силами и для новосибирского клуба риичи-маджонга "Фуритен". Из-за чего перевод порой может изобиловать специфической игровой лексикой. Фильм, будучи снятым в Гонконге, относится к так называемоей категории "фильмов про маджонг", рассчитанной на любителей игры.
Сэмпл: http://sendfile.su/1114811
Качество видео: DVDRip
Формат видео: AVI
Видео: x264, 720х406, 16:9, 24 fps, 1600 kbps
Аудио: MP3, 44100Hz, 128kbps, 2ch
MediaInfo
Общее
Полное имя : D:\TV\Fat Choi Spirit (Mahjong Warrior).Adrenalin28.avi
Формат : AVI
Формат/Информация : Audio Video Interleave
Профиль формата : OpenDML
Размер файла : 1,18 Гбайт
Продолжительность : 1 ч. 36 м.
Общий поток : 1743 Кбит/сек
Программа кодирования : MEncoder SVN-r33883(20110719-gcc4.5.2)
Библиотека кодирования : MPlayer
Видео
Идентификатор : 0
Формат : AVC
Формат/Информация : Advanced Video Codec
Профиль формата : High@L3
Параметр CABAC формата : Нет
Параметр ReFrames формата : 1 кадр
Идентификатор кодека : avc1
Продолжительность : 1 ч. 36 м.
Битрейт : 1600 Кбит/сек
Ширина : 720 пикселей
Высота : 406 пикселей
Соотношение сторон : 16:9
Частота кадров : 24,000 кадра/сек
Цветовое пространство : YUV
Субдискретизация насыщенности : 4:2:0
Битовая глубина : 8 бит
Тип развёртки : Прогрессивная
Бит/(Пиксели*Кадры) : 0.228
Размер потока : 1,08 Гбайт (92%)
Библиотека кодирования : x264 core 116 r2019 9cc407d
Настройки программы : cabac=0 / ref=1 / deblock=1:0:0 / analyse=0x3:0x113 / me=hex / subme=7 / psy=1 / psy_rd=1.00:0.00 / mixed_ref=0 / me_range=16 / chroma_me=1 / trellis=1 / 8x8dct=1 / cqm=0 / deadzone=21,11 / fast_pskip=1 / chroma_qp_offset=-2 / threads=6 / sliced_threads=0 / nr=0 / decimate=1 / interlaced=0 / bluray_compat=0 / constrained_intra=0 / bframes=0 / weightp=2 / keyint=250 / keyint_min=24 / scenecut=40 / intra_refresh=0 / rc_lookahead=40 / rc=2pass / mbtree=1 / bitrate=1600 / ratetol=1.0 / qcomp=0.60 / qpmin=0 / qpmax=69 / qpstep=4 / cplxblur=20.0 / qblur=0.5 / ip_ratio=1.40 / aq=1:1.00
Аудио
Идентификатор : 1
Формат : MPEG Audio
Версия формата : Version 1
Профиль формата : Layer 3
Режим : Joint stereo
Расширение режима : MS Stereo
Идентификатор кодека : 55
Идентификатор кодека/Подсказка : MP3
Продолжительность : 1 ч. 36 м.
Вид битрейта : Постоянный
Битрейт : 128 Кбит/сек
Каналы : 2 канала
Частота : 44,1 КГц
Метод сжатия : С потерями
Размер потока : 88,3 Мбайт (7%)
Выравнивание : Соединение по промежуткам
Продолжительность промежутка : 26 мс. (0,63 видеокадр)
Время предзагрузки промежутка : 522 мс.
Библиотека кодирования : LAME3.98.4
Скриншот c названием фильма Скриншоты
Скачать

Скачать торрент! Дух Рождества / Воин Маджонга / Fat Choi Spirit / Mahjong Warrior (Джонни То / Вай Ка-Фай, Johnnie To / Wai Ka-Fai) [2002, Китай, Комедия, DVDRip] VO (Adrenalin28)

Как скачивать? · Что такое торрент? · Рейтинг и ограничения

Сайт не распространяет и не хранит электронные версии произведений, а лишь предоставляет доступ к создаваемому пользователями каталогу ссылок на торрент-файлы, которые содержат только списки хеш-сумм

[Профиль] [ЛС]
Показать сообщения:    
Ответить на тему

Текущее время: Сегодня 22:25

Часовой пояс: GMT + 4



Вы не можете начинать темы
Вы не можете отвечать на сообщения
Вы не можете редактировать свои сообщения
Вы не можете удалять свои сообщения
Вы не можете голосовать в опросах
Вы не можете прикреплять файлы к сообщениям
Вы не можете скачивать файлы