Рождённый ветром / Сын ветра / Hawaizaada (Вибху Пури / Vibhu Puri) [2015, Индия, Фэнтези, драма, биография, DVDRip] DVO (DeadSno & den904) + Origihal (Hindi) + Sub Rus (песни)

Ответить на тему
 
Автор Сообщение

user ®

Стаж: 12 лет

Сообщений: 15092

Пост Пост: #1 от 05-Май-2015 14:24

[Цитировать]

Рождённый ветром / Hawaizaada*Когда мечта уносит в облака*
Страна: Индия
Жанр: Фэнтези, драма, биография
Год выпуска: 2015
Продолжительность: 02:10:08-Перевод: Любительский (двухголосый закадровый) - DeadSno & den904
Cубтитры: русские (на песни)-Режиссер: Вибху Пури / Vibhu Puri-В ролях: Митхун Чакраборти, Аюшман Кхурана, Паллави Шарда, Наман Джейн, Джеффри Голберг, Крутика Део-Описание: Для своих близких и друзей он был простым и добродушным Шиви, парнем играющим в оркестре и до смерти ненавидящим учёбу. Но лишь одна встреча с непризнанным гением физики Шастри-джи изменила в корне его судьбу и превратила в Шивкара Бапуджи Талпаде, которого история признаёт, как самого первого создателя самолёта, на котором человек впервые смог подняться в небо. (с) HASEENA- | --Качество видео: DVDRip
Формат видео: AVI-Видео: 720x304 (2.37:1), 23.976 fps, XviD build 50 ~1459 kbps avg, 0.28 bit/pixel
Аудио: 48 kHz, MPEG Layer 3, 2 ch, ~128.00 kbps
Формат субтитров: ASS (отключаемые, отдельный файл)-Сэмпл / Sample-Озвучка: DeadSno & den904 (спасибо)
Перевод и редакция: Honey&Haseena (спасибо)
Риппер: soso4eg
Переведено и озвучено по заказу Диляры Сайфутдиновой (спасибо)- Скриншот с названием
-
Скриншоты
-
MI
General
Complete name : H:\[Releases]\Rozhdenniy.Vetrom.2015.DVDRip.XviD.Kolobok.BwTorrents\Rozhdenniy.vetrom.2015.DVDRip.XviD.Kolobok.BwTorrents.avi
Format : AVI
Format/Info : Audio Video Interleave
File size : 1.45 GiB
Duration : 2h 10mn
Overall bit rate : 1 597 Kbps
Movie name : Hawaizaada.2015.DVDRip.XviD.Kolobok-soso4eg
Director : soso4eg
Writing application : VirtualDubMod 1.5.10.2 (build 2540/release)
Writing library : VirtualDubMod build 2540/release
Original source form/Name : Hindi
Comment : озв. Колобок по суб. Honey&Haseena
Video
ID : 0
Format : MPEG-4 Visual
Format profile : Advanced Simple@L5
Format settings, BVOP : 1
Format settings, QPel : No
Format settings, GMC : No warppoints
Format settings, Matrix : Default (MPEG)
Codec ID : XVID
Codec ID/Hint : XviD
Duration : 2h 10mn
Bit rate : 1 460 Kbps
Width : 720 pixels
Height : 304 pixels
Display aspect ratio : 2.35:1
Frame rate : 23.976 fps
Color space : YUV
Chroma subsampling : 4:2:0
Bit depth : 8 bits
Scan type : Progressive
Compression mode : Lossy
Bits/(Pixel*Frame) : 0.278
Stream size : 1.33 GiB (91%)
Writing library : XviD 1.2.1 (UTC 2008-12-04)
Audio
ID : 1
Format : MPEG Audio
Format version : Version 1
Format profile : Layer 3
Mode : Joint stereo
Mode extension : MS Stereo
Codec ID : 55
Codec ID/Hint : MP3
Duration : 2h 10mn
Bit rate mode : Constant
Bit rate : 128 Kbps
Channel(s) : 2 channels
Sampling rate : 48.0 KHz
Compression mode : Lossy
Stream size : 119 MiB (8%)
Alignment : Aligned on interleaves
Interleave, duration : 42 ms (1.00 video frame)
Interleave, preload duratio : 504 ms
Writing library : LAME3.90.3ЄЄЄЄ?‰Б€0
-
Скачать

Скачать торрент! Рождённый ветром / Сын ветра / Hawaizaada (Вибху Пури / Vibhu Puri) [2015, Индия, Фэнтези, драма, биография, DVDRip] DVO (DeadSno & den904) + Origihal (Hindi) + Sub Rus (песни)

Как скачивать? · Что такое торрент? · Рейтинг и ограничения

Сайт не распространяет и не хранит электронные версии произведений, а лишь предоставляет доступ к создаваемому пользователями каталогу ссылок на торрент-файлы, которые содержат только списки хеш-сумм

[Профиль] [ЛС]
Показать сообщения:    
Ответить на тему

Текущее время: Сегодня 19:06

Часовой пояс: GMT + 4



Вы не можете начинать темы
Вы не можете отвечать на сообщения
Вы не можете редактировать свои сообщения
Вы не можете удалять свои сообщения
Вы не можете голосовать в опросах
Вы не можете прикреплять файлы к сообщениям
Вы не можете скачивать файлы