Нечестных прошу не беспокоить / Если ты единственная / Если ты - та / If You Are the One / Fei cheng wu rao (Фэн Сяоган / Feng Xiaogang) [2008 г., Китай, мелодрама, комедия, BDRip] DVO (Кубик в кубе) + Original Chi + Sub (Rus, Eng)

Ответить на тему
 
Автор Сообщение

user ®

Стаж: 13 лет

Сообщений: 15071

Пост Пост: #1 от 04-Май-2015 22:54

[Цитировать]

-Нечестных прошу не беспокоить / Если ты единственная / Если ты - та
If You Are the One / Fei cheng wu rao
Страна: Китай
Студия: Huayi Brothers Media, Media Asia Films Ltd.
Жанр: Мелодрама, комедия
Год выпуска: 2008
Продолжительность: 02:05:15-Перевод: Профессиональный (двухголосый, закадровый) Кубик в кубе
Оригинальная аудиодорожка: китайская
Cубтитры: русские, английские
Режиссер: Фэн Сяоган / Feng Xiaogang
В ролях: Гэ Ю, Шу Ци, Фань Вэй, Фэн Юаньчжэн, Алекс Фонг, Вивиан Су, Ху Кэ, Миумиу, Лин Ли, Чэ Сяо, Хэ Цзяи
Описание: Чинь Фэнь — сорокалетний холостяк, проживший много лет в Америке, возвращается в Китай в надежде найти жену, «современную снаружи, старомодную внутри». Он дает объявление на брачном портале, и начинает встречаться с соискательницами романтической любви. К сожалению, времена изменились, и сегодняшние обитательницы Поднебесной стали весьма прагматичными и раскрепощенными.
Однажды во время своих брачных поисков он встречает ослепительно красивую стюардессу, влюбленную в женатого мужчину, который кормит ее «завтраками» относительно скорого развода. Быстро поняв, что деревце ему не по плечу, озабоченный матримониальными планами «возвращенец» сваливает в сторону, но жизнь закручивает древний как мир сюжет по-своему…-
Сэмпл: скачать-Релиз от -
Автор рипа: Elheym
Качество: BDRip ([url=http://***/forum/viewtopic.php?t=3157630]источник[/url]: / Blu-ray Disc [IF_YOU_ARE_THE_ONE_BD_BLUEBIRD] / 1080p)
Контейнер: AVI
Видео: 720x304 (2.37:1), 24 fps, XviD build 65 ~1719 kbps avg, 0.33 bit/pixel
Аудио #1: Русский: AC3, 5.1, 48 kHz, ~384 Кбит/с | Профессиональный (двухголосый, закадровый) Кубик в кубе |
Аудио #2: Китайский: AC3, 5.1, 48 kHz, ~384 Кбит/с | Оригинал |
Субтитры: русские (полные: ВадНес, Чайнафилм), английские (полные)
Размер: 2234.47 Mb (1/2 DVD)
MediaInfo
Полное имя : Nechestnyh.proshu.ne.bespokoit.2008.DUAL.BDRip.XviD.AC3.-HQCLUB.avi
Формат : AVI
Формат/Информация : Audio Video Interleave
Профиль формата : OpenDML
Размер файла : 2,18 Гбайт
Продолжительность : 2 ч. 5 м.
Общий поток : 2494 Кбит/сек
Название фильма : Нечестных прошу не беспокоить / If You Are the One / Fei cheng wu rao (2008) BDRip
Режиссёр : Elheym
Программа кодирования : VirtualDubMod 1.5.10.2 (build 2540/release)
Правообладатель : HQCLUB
Примечание : 03.05.2015
Видео
Идентификатор : 0
Формат : MPEG-4 Visual
Профиль формата : Advanced Simple@L5
Параметр BVOP формата : 1
Параметр QPel формата : Нет
Параметр GMC формата : Без точки перехода
Параметр матрицы формата : Выборочная
Идентификатор кодека : XVID
Идентификатор кодека/Подсказка : XviD
Продолжительность : 2 ч. 5 м.
Битрейт : 1708 Кбит/сек
Ширина : 720 пикселей
Высота : 304 пикселя
Соотношение сторон : 2,35:1
Частота кадров : 24,000 кадра/сек
Цветовое пространство : YUV
Субдискретизация насыщенности : 4:2:0
Битовая глубина : 8 бит
Тип развёртки : Прогрессивная
Метод сжатия : С потерями
Бит/(Пиксели*Кадры) : 0.325
Размер потока : 1,49 Гбайт (68%)
Библиотека кодирования : XviD 65
Аудио #1
Идентификатор : 1
Формат : AC-3
Формат/Информация : Audio Coding 3
Расширение режима : CM (complete main)
Параметр Endianness формата : Big
Идентификатор кодека : 2000
Продолжительность : 2 ч. 5 м.
Вид битрейта : Постоянный
Битрейт : 384 Кбит/сек
Каналы : 6 каналов
Расположение каналов : Front: L C R, Side: L R, LFE
Частота : 48,0 КГц
Битовая глубина : 16 бит
Метод сжатия : С потерями
Размер потока : 344 Мбайт (15%)
Выравнивание : Разделение по промежуткам
Продолжительность промежутка : 42 мс. (1,00 видеокадр)
Время предзагрузки промежутка : 500 мс.
Аудио #2
Идентификатор : 2
Формат : AC-3
Формат/Информация : Audio Coding 3
Расширение режима : CM (complete main)
Параметр Endianness формата : Big
Идентификатор кодека : 2000
Продолжительность : 2 ч. 5 м.
Вид битрейта : Постоянный
Битрейт : 384 Кбит/сек
Каналы : 6 каналов
Расположение каналов : Front: L C R, Side: L R, LFE
Частота : 48,0 КГц
Битовая глубина : 16 бит
Метод сжатия : С потерями
Размер потока : 344 Мбайт (15%)
Выравнивание : Разделение по промежуткам
Продолжительность промежутка : 42 мс. (1,00 видеокадр)
Время предзагрузки промежутка : 500 мс.
Скриншоты
Скачать

Скачать торрент! Нечестных прошу не беспокоить / Если ты единственная / Если ты - та / If You Are the One / Fei cheng wu rao (Фэн Сяоган / Feng Xiaogang) [2008 г., Китай, мелодрама, комедия, BDRip] DVO (Кубик в кубе) + Original Chi + Sub (Rus, Eng)

Как скачивать? · Что такое торрент? · Рейтинг и ограничения

Сайт не распространяет и не хранит электронные версии произведений, а лишь предоставляет доступ к создаваемому пользователями каталогу ссылок на торрент-файлы, которые содержат только списки хеш-сумм

[Профиль] [ЛС]
Показать сообщения:    
Ответить на тему

Текущее время: Сегодня 17:43

Часовой пояс: GMT + 4



Вы не можете начинать темы
Вы не можете отвечать на сообщения
Вы не можете редактировать свои сообщения
Вы не можете удалять свои сообщения
Вы не можете голосовать в опросах
Вы не можете прикреплять файлы к сообщениям
Вы не можете скачивать файлы