Крик совы / Hoot (Уил Шрайнер / Wil Shriner) [2006, США, комедия, приключения, семейный, WEB-DL 720p] MVO (R5) + Sub (Rus, Eng) + Original Eng

Ответить на тему
 
Автор Сообщение

user ®

Стаж: 7 лет 7 месяцев

Сообщений: 20008

Пост Пост: #1 от 04-Май-2015 19:48

[Цитировать]

Крик совы / Hoot
Страна: США
Жанр: Комедия, приключения, семейный
Год выпуска: 2006
Продолжительность: 01:30:47
Перевод: Профессиональный (многоголосый закадровый) R5
Cубтитры: русские (R5), английские
Оригинальная аудиодорожка: английский
Режиссер: Уил Шрайнер / Wil Shriner
В ролях: Логан Лерман, Коди Линли, Бри Ларсон, Люк Уилсон, Тим Блейк Нельсон, Кларк Грегг, Нил Флинн, Кирстен Уоррен, Джессика Коффил
Описание: Школьник Рой Эберхардт переезжает вместе с семьёй из Монтаны во Флориду. Там он при необычных обстоятельствах знакомится с новыми будущими друзьями-борцами за охрану природы: Ловцом мальков и Беатрис-медведицей и вместе они пытаются предотвратить строительство новой блинной, которая угрожает популяции редких земельных сов. Друзья готовы на всё, чтобы не дать взрослым совершить большую ошибку.
Доп. информация: Источник: зарубежный трекер.
Качество видео среднее, но другого HD рипа я не нашел. В любом случае это гораздо лучше нашего лицушного [url=http://***/forum/viewtopic.php?t=1103932]DVD R5[/url] (и рипов с него) в котором из-за низкого битрейта артефакты и квадратики.
IMDB: http://www.imdb.com/title/tt0453494/
Кинопоиск: http://www.kinopoisk.ru/film/100552/
Сэмпл: https://yadi.sk/d/gc-FIGthgQFkR
Тип релиза: WEB-DL 720p
Контейнер: MKV
Видео: H.264, 1280x692, 1.85:1, ~3892 kbps, 23.976 fps
Аудио 1: Русский MVO, AC3, 6 ch, 48 kHz, 448 kbps
Аудио 2: Английский, AC3, 6 ch, 48 kHz, 384 kbps
Формат субтитров: softsub (SRT)
MediaInfo
General
Unique ID : 189389526770786938702034203066030988553 (0x8E7B189871CB92C4969CC0443D799D09)
Complete name : Крик совы.mkv
Format : Matroska
Format version : Version 2
File size : 3.06 GiB
Duration : 1h 30mn
Overall bit rate : 4 820 Kbps
Encoded date : UTC 2013-11-07 00:07:17
Writing application : mkvmerge v5.8.0 ('No Sleep / Pillow') built on Sep 2 2012 15:37:04
Writing library : libebml v1.2.3 + libmatroska v1.3.0
Video
ID : 1
Format : AVC
Format/Info : Advanced Video Codec
Format profile : High@L3.1
Format settings, CABAC : No
Format settings, ReFrames : 2 frames
Codec ID : V_MPEG4/ISO/AVC
Duration : 1h 30mn
Bit rate : 3 892 Kbps
Width : 1 280 pixels
Height : 692 pixels
Display aspect ratio : 1.85:1
Frame rate mode : Constant
Frame rate : 23.976 fps
Color space : YUV
Chroma subsampling : 4:2:0
Bit depth : 8 bits
Scan type : Progressive
Bits/(Pixel*Frame) : 0.183
Stream size : 2.47 GiB (81%)
Language : English
Default : Yes
Forced : No
Color primaries : BT.709
Transfer characteristics : BT.709
Matrix coefficients : BT.709
Color range : Limited
Audio #1
ID : 2
Format : AC-3
Format/Info : Audio Coding 3
Mode extension : CM (complete main)
Format settings, Endianness : Big
Codec ID : A_AC3
Duration : 1h 30mn
Bit rate mode : Constant
Bit rate : 448 Kbps
Channel(s) : 6 channels
Channel positions : Front: L C R, Side: L R, LFE
Sampling rate : 48.0 KHz
Bit depth : 16 bits
Compression mode : Lossy
Stream size : 291 MiB (9%)
Language : Russian
Default : Yes
Forced : No
Audio #2
ID : 3
Format : AC-3
Format/Info : Audio Coding 3
Mode extension : CM (complete main)
Format settings, Endianness : Big
Codec ID : A_AC3
Duration : 1h 30mn
Bit rate mode : Constant
Bit rate : 384 Kbps
Channel(s) : 6 channels
Channel positions : Front: L C R, Side: L R, LFE
Sampling rate : 48.0 KHz
Bit depth : 16 bits
Compression mode : Lossy
Stream size : 249 MiB (8%)
Language : English
Default : No
Forced : No
Text #1
ID : 4
Format : UTF-8
Codec ID : S_TEXT/UTF8
Codec ID/Info : UTF-8 Plain Text
Language : Russian
Default : No
Forced : No
Text #2
ID : 5
Format : UTF-8
Codec ID : S_TEXT/UTF8
Codec ID/Info : UTF-8 Plain Text
Language : English
Default : No
Forced : No
Menu
00:00:00.000 : en:Title
00:02:20.000 : en:New Kid
00:06:41.000 : en:Chasing Mullet
00:10:13.000 : en:Vandalism
00:14:42.000 : en:Stakeout
00:17:24.000 : en:Confronting Bullies
00:20:37.000 : en:Mullet's Hideout
00:24:42.000 : en:Delivering Shoes
00:31:35.000 : en:Muckle's 100th
00:37:03.000 : en:Dana's Revenge
00:40:42.000 : en:The Dog Bite
00:49:26.000 : en:Nature Tour
00:54:07.000 : en:Dana's Arrest
00:57:54.000 : en:Overnight Guest
01:00:46.000 : en:Missing Seat
01:04:29.000 : en:The Plan
01:13:28.000 : en:Ground Breaking
01:17:38.000 : en:Roy's Speech
01:24:52.000 : en:Happy Ending
01:26:47.000 : en:Credits
Скриншоты
Скачать

Скачать торрент!

Как скачивать? · Что такое торрент? · Рейтинг и ограничения

Сайт не распространяет и не хранит электронные версии произведений, а лишь предоставляет доступ к создаваемому пользователями каталогу ссылок на торрент-файлы, которые содержат только списки хеш-сумм

[Профиль] [ЛС]
Показать сообщения:    
Ответить на тему

Текущее время: Сегодня 00:07

Часовой пояс: GMT + 4



Вы не можете начинать темы
Вы не можете отвечать на сообщения
Вы не можете редактировать свои сообщения
Вы не можете удалять свои сообщения
Вы не можете голосовать в опросах
Вы не можете прикреплять файлы к сообщениям
Вы не можете скачивать файлы