Жить (Юрий Быков) [2010, Россия, триллер, драма, криминал, HDTV 1080i]

Ответить на тему
 
Автор Сообщение

user ®

Стаж: 7 лет 7 месяцев

Сообщений: 20008

Пост Пост: #1 от 04-Май-2015 13:36

[Цитировать]

Жить
Страна: Россия
Студия: ТПО Рок
Жанр: триллер, драма, криминал
Год выпуска: 2010
Продолжительность: 1:11:44
Перевод: Не требуется
Cубтитры: нет
Оригинальная аудиодорожка: русский
Режиссер: Юрий Быков
В ролях: Денис Шведов
Владислав Толдыков
Алексей Комашко
Константин Стрельников
Сергей Жарков
Сергей Сосновский
Сергей Беляев
Описание: Дикие места. Трое преследуют пожилого охотника и молодого парня. Один — проводник, второй — боец. Незнакомые, чуждые друг другу люди должны вместе выжить и добраться до города. Какова цена жизни? На этот вопрос каждый ответит по-своему.
Сэмпл: http://multi-up.com/1046563
Тип релиза: HDTV 1080i
Контейнер: TS
Видео: AVC/H.264, 1920x1080 (16:9), 7543 Кбит/сек, 25.000 fps
Аудио: AC3, 48000 Hz, 448 Кбит/сек, 5.1 ch
MediaInfo
General
ID : 1 (0x1)
Complete name : D:\Жить.ts
Format : MPEG-TS
File size : 4.21 GiB
Duration : 1h 11mn
Overall bit rate mode : Variable
Overall bit rate : 8 411 Kbps
Video
ID : 3551 (0xDDF)
Menu ID : 1 (0x1)
Format : AVC
Format/Info : Advanced Video Codec
Format profile : Main@L4
Format settings, CABAC : Yes
Format settings, ReFrames : 3 frames
Codec ID : 27
Duration : 1h 11mn
Bit rate : 7 543 Kbps
Width : 1 920 pixels
Height : 1 080 pixels
Display aspect ratio : 16:9
Frame rate : 25.000 fps
Standard : Component
Color space : YUV
Chroma subsampling : 4:2:0
Bit depth : 8 bits
Scan type : Interlaced
Scan order : Top Field First
Bits/(Pixel*Frame) : 0.146
Stream size : 3.78 GiB (90%)
Color range : Limited
Color primaries : BT.709
Transfer characteristics : BT.709
Matrix coefficients : BT.709
Audio
ID : 3553 (0xDE1)
Menu ID : 1 (0x1)
Format : AC-3
Format/Info : Audio Coding 3
Mode extension : CM (complete main)
Format settings, Endianness : Big
Codec ID : 6
Duration : 1h 11mn
Bit rate mode : Constant
Bit rate : 448 Kbps
Channel(s) : 6 channels
Channel positions : Front: L C R, Side: L R, LFE
Sampling rate : 48.0 KHz
Compression mode : Lossy
Stream size : 230 MiB (5%)
Language : Russian
Скриншоты
Скачать

Скачать торрент!

Как скачивать? · Что такое торрент? · Рейтинг и ограничения

Сайт не распространяет и не хранит электронные версии произведений, а лишь предоставляет доступ к создаваемому пользователями каталогу ссылок на торрент-файлы, которые содержат только списки хеш-сумм

[Профиль] [ЛС]
Показать сообщения:    
Ответить на тему

Текущее время: Сегодня 02:16

Часовой пояс: GMT + 4



Вы не можете начинать темы
Вы не можете отвечать на сообщения
Вы не можете редактировать свои сообщения
Вы не можете удалять свои сообщения
Вы не можете голосовать в опросах
Вы не можете прикреплять файлы к сообщениям
Вы не можете скачивать файлы