Стерва для чемпиона (Сергей Гинзбург) [2010, Россия, комедия, HDTV 1080i] + Original Rus

Ответить на тему
 
Автор Сообщение

user ®

Стаж: 7 лет 7 месяцев

Сообщений: 20008

Пост Пост: #1 от 04-Май-2015 13:36

[Цитировать]

Стерва для чемпиона Страна: Россия
Жанр: комедия
Год выпуска: 2010
Продолжительность: 01:39:51
Перевод: Не требуется
Cубтитры: нет
Оригинальная аудиодорожка: русский
Режиссер: Сергей Гинзбург
В ролях: Анастасия Цветаева, Андрей Чернышов, Александр Ильин, Александр Пашутин, Константин Мурзенко, Равиль Исянов, Яна Поплавская, Алексей, Дмитриев, Александр Фарбер, Михаил Полицеймако
Описание: Некоторые русские дядюшки, умирая, оставляют завещание своим лондонским племянницам. Так 23-летняя красавица Дженни Вольт получает в наследство крупнейший российский боксерский клуб. А в придачу — контракт на проведение боя Международной Ассоциацией Бокса (WBA). Рисковая девушка готова ввязаться в эту отнюдь не женскую авантюру.
Только вот незадача — владелец конкурирующего клуба Хоркин готов на все, чтобы выманить у нее этот контракт. И первое, что он делает — уводит всю ее команду бойцов. Но Дженни не так-то просто сбить с выбранного пути! У нее в руках оказывается неожиданный козырь: молодой и никому неизвестный боксер Топазов, в котором она видит железную волю к победе и отчаянную решимость добиться успеха. Теперь их задача — как можно быстрее сделать Топазова звездой боксерского ринга. И любой ценой выиграть самый главный в их жизни приз!..
[url=http://***/forum/tracker.php?nm=%D0%A1%D1%82%D0%B5%D1%80%D0%B2%D0%B0%20%D0%B4%D0%BB%D1%8F%20%D1%87%D0%B5%D0%BC%D0%BF%D0%B8%D0%BE%D0%BD%D0%B0]Ссылка на другие раздачи[/url]

Сэмпл: http://rusfolder.com/43586117
Тип релиза: HDTV 1080i
Контейнер: TS
Видео: AVC/H.264, 1920x1080 (16:9), 15,6 Мбит/сек, 25.000 fps
Аудио 1: русский, MP2, 2ch, 48,0 КГц, 192 Кбит/сек
Аудио 2: русский, AC-3, 6ch, 48,0 КГц, 448 Кбит/сек
MediaInfo
Общее
Идентификатор : 1 (0x1)
Полное имя : D:\Стерва для чемпиона.ts
Формат : MPEG-TS
Размер файла : 11,9 Гбайт
Продолжительность : 1 ч. 39 м.
Режим общего битрейта : Переменный
Общий поток : 17,1 Мбит/сек
Видео
Идентификатор : 3551 (0xDDF)
Идентификатор меню : 1 (0x1)
Формат : AVC
Формат/Информация : Advanced Video Codec
Профиль формата : Main@L4.0
Параметр CABAC формата : Да
Параметр ReFrames формата : 3 кадра
Идентификатор кодека : 27
Продолжительность : 1 ч. 39 м.
Битрейт : 15,6 Мбит/сек
Ширина : 1920 пикселей
Высота : 1080 пикселей
Соотношение сторон : 16:9
Частота кадров : 25,000 кадров/сек
Стандарт вещания : Component
Цветовое пространство : YUV
Субдискретизация насыщенности : 4:2:0
Битовая глубина : 8 бит
Тип развёртки : Чересстрочная
Порядок развёртки : Верхнее поле первое
Бит/(Пиксели*Кадры) : 0.300
Размер потока : 10,9 Гбайт (91%)
Основные цвета : BT.709
Характеристики трансфера : BT.709
Коэффициенты матрицы : BT.709
colour_range : Limited
Аудио #1
Идентификатор : 3552 (0xDE0)
Идентификатор меню : 1 (0x1)
Формат : MPEG Audio
Версия формата : Version 1
Профиль формата : Layer 2
Идентификатор кодека : 3
Продолжительность : 1 ч. 39 м.
Вид битрейта : Постоянный
Битрейт : 192 Кбит/сек
Каналы : 2 канала
Частота : 48,0 КГц
Метод сжатия : С потерями
Размер потока : 137 Мбайт (1%)
Язык : Russian
Аудио #2
Идентификатор : 3553 (0xDE1)
Идентификатор меню : 1 (0x1)
Формат : AC-3
Формат/Информация : Audio Coding 3
Расширение режима : CM (complete main)
Параметр Endianness формата : Big
Идентификатор кодека : 6
Продолжительность : 1 ч. 39 м.
Вид битрейта : Постоянный
Битрейт : 448 Кбит/сек
Каналы : 6 каналов
Расположение каналов : Front: L C R, Side: L R, LFE
Частота : 48,0 КГц
Битовая глубина : 16 бит
Метод сжатия : С потерями
Размер потока : 320 Мбайт (3%)
Язык : Russian
Скриншот с названием фильма Скриншоты
Скачать

Скачать торрент!

Как скачивать? · Что такое торрент? · Рейтинг и ограничения

Сайт не распространяет и не хранит электронные версии произведений, а лишь предоставляет доступ к создаваемому пользователями каталогу ссылок на торрент-файлы, которые содержат только списки хеш-сумм

[Профиль] [ЛС]
Показать сообщения:    
Ответить на тему

Текущее время: Сегодня 21:44

Часовой пояс: GMT + 4



Вы не можете начинать темы
Вы не можете отвечать на сообщения
Вы не можете редактировать свои сообщения
Вы не можете удалять свои сообщения
Вы не можете голосовать в опросах
Вы не можете прикреплять файлы к сообщениям
Вы не можете скачивать файлы